<?xml version="1.0" standalone="no"?>
<!DOCTYPE svg PUBLIC "-//W3C//DTD SVG 1.1//EN" "http://www.w3.org/Graphics/SVG/1.1/DTD/svg11.dtd" >
<svg xmlns="http://www.w3.org/2000/svg">
<metadata>Generated by IcoMoon</metadata>
<defs>
<font id="StrawberryIcon-Free" horiz-adv-x="1024">
<font-face units-per-em="1024" ascent="960" descent="-64" />
<missing-glyph horiz-adv-x="1024" />
<glyph unicode="&#x20;" horiz-adv-x="512" d="" />
<glyph unicode="&#xe900;" glyph-name="about" d="M512 896c-249.6 0-448-198.4-448-448s198.4-448 448-448 448 198.4 448 448c0 249.6-198.4 448-448 448zM544 192h-64v64h64v-64zM544 320h-64v384h64v-384z" />
<glyph unicode="&#xe901;" glyph-name="about-l" d="M512 896c-249.6 0-448-198.4-448-448s198.4-448 448-448c249.6 0 448 198.4 448 448s-198.4 448-448 448zM512 64c-211.2 0-384 172.8-384 384s172.8 384 384 384 384-172.8 384-384-172.8-384-384-384zM480 704h64v-384h-64v384zM480 256h64v-64h-64v64z" />
<glyph unicode="&#xe902;" glyph-name="add" d="M832 512h-256v256h-128v-256h-256v-128h256v-256h128v256h256z" />
<glyph unicode="&#xe903;" glyph-name="airplane" d="M864 576h-275.2l-204.8 256h-64l51.2-256h-179.2l-128 128v-448l128 128h192l-64-256h64l256 256h224c51.2 0 96 44.8 96 96s-44.8 96-96 96z" />
<glyph unicode="&#xe904;" glyph-name="airplane-l" d="M864 576h-275.2l-204.8 256h-64l51.2-256h-179.2l-128 128v-448l128 128h192l-64-256h64l256 256h224c51.2 0 96 44.8 96 96s-44.8 96-96 96zM864 448h-249.6l-198.4-198.4 32 121.6 19.2 76.8h-300.8l-38.4-38.4v140.8l38.4-38.4h281.6l-12.8 76.8-19.2 102.4 128-160 12.8-19.2h307.2c19.2 0 32-12.8 32-32s-12.8-32-32-32z" />
<glyph unicode="&#xe905;" glyph-name="alipay" d="M1024 256v505.6c0 108.8-89.6 198.4-198.4 198.4h-627.2c-108.8 0-198.4-89.6-198.4-198.4v-627.2c0-108.8 89.6-198.4 198.4-198.4h627.2c96 0 179.2 70.4 192 160-51.2 25.6-281.6 121.6-396.8 179.2-89.6-108.8-185.6-172.8-326.4-172.8s-236.8 89.6-224 192c12.8 70.4 57.6 185.6 268.8 166.4 108.8-12.8 160-32 249.6-64 25.6 44.8 44.8 89.6 57.6 140.8h-396.8v38.4h198.4v70.4h-243.2v44.8h243.2v102.4c0 0 0 19.2 19.2 19.2h96v-115.2h256v-44.8h-256v-76.8h211.2c-19.2-76.8-51.2-147.2-83.2-211.2 57.6-19.2 332.8-108.8 332.8-108.8zM281.6 166.4c-147.2 0-172.8 96-166.4 134.4 12.8 38.4 51.2 89.6 134.4 89.6 96 0 179.2-25.6 281.6-76.8-64-89.6-153.6-147.2-249.6-147.2z" />
<glyph unicode="&#xe906;" glyph-name="analysis" d="M515.013 448.447l440.194 65.316c3.157-21.464 4.793-43.422 4.793-65.763 0-85.665-24.044-165.714-65.751-233.767l-379.41 231.722 380.527-232.44-20.304-28.034c-83.725-115.604-217.577-185.48-363.062-185.48-247.424 0-448 200.576-448 448s200.576 448 448 448h34.316l-31.303-447.553zM941.893 574.464l-61.406-18.037c-5.562 18.936-12.578 37.375-20.975 55.177l57.884 27.303c9.805-20.788 17.999-42.324 24.496-64.442zM881.275 701.722l-52.719-36.287c-11.182 16.245-23.601 31.616-37.137 45.969l46.561 43.91c15.778-16.731 30.257-34.65 43.295-53.592zM787.596 801.224l-39.402-50.433c-15.544 12.144-31.997 23.078-49.212 32.696l31.213 55.873c20.085-11.22 39.275-23.974 57.401-38.135zM662.874 869.951l-21.55-60.263c-18.511 6.62-37.545 11.809-56.967 15.511l11.981 62.868c22.682-4.323 44.914-10.385 66.536-18.117zM128 448c0-212.077 171.923-384 384-384 112.873 0 217.501 49.013 289.593 131.8l-353.312 215.816 29.296 418.862c-195.95-17.408-349.577-182.002-349.577-382.478z" />
<glyph unicode="&#xe907;" glyph-name="android" d="M217.6 614.4h563.2v-409.6c0-38.4-32-70.4-64-70.4h-44.8v-134.4c0-32-25.6-64-64-64-32 0-64 25.6-64 64v140.8h-89.6v-140.8c0-32-25.6-64-64-64-32 0-64 25.6-64 64v140.8h-44.8c-38.4 0-70.4 32-70.4 70.4l6.4 403.2zM128 627.2c-32 0-64-25.6-64-64v-262.4c0-32 25.6-64 64-64s64 25.6 64 64v262.4c0 38.4-32 64-64 64zM780.8 640h-569.6c0 96 57.6 185.6 147.2 224l-44.8 83.2c0 6.4 0 12.8 0 12.8 6.4 0 12.8 0 12.8-6.4l44.8-83.2c38.4 19.2 76.8 25.6 121.6 25.6s83.2-6.4 121.6-25.6l44.8 83.2c6.4 6.4 12.8 6.4 19.2 6.4s6.4-6.4 0-12.8l-38.4-83.2c83.2-44.8 140.8-128 140.8-224zM390.4 768c0 12.8-12.8 25.6-25.6 25.6-12.8-6.4-19.2-12.8-19.2-25.6s12.8-25.6 25.6-25.6c12.8 0 19.2 12.8 19.2 25.6zM652.8 768c0 12.8-12.8 25.6-25.6 25.6-12.8-6.4-25.6-12.8-25.6-25.6s12.8-25.6 25.6-25.6c12.8 0 25.6 12.8 25.6 25.6zM870.4 627.2c-32 0-64-25.6-64-64v-262.4c0-32 25.6-64 64-64 32 0 64 25.6 64 64v262.4c-6.4 38.4-32 64-64 64z" />
<glyph unicode="&#xe908;" glyph-name="angle-down-l" d="M512 211.2l-473.6 467.2 51.2 51.2 422.4-428.8 422.4 428.8 51.2-51.2z" />
<glyph unicode="&#xe909;" glyph-name="angle-left-l" d="M742.4-25.6l-467.2 473.6 467.2 473.6 51.2-51.2-428.8-422.4 428.8-422.4z" />
<glyph unicode="&#xe90a;" glyph-name="angle-right-l" d="M281.6-25.6l-51.2 51.2 428.8 422.4-428.8 422.4 51.2 51.2 467.2-473.6z" />
<glyph unicode="&#xe90b;" glyph-name="angle-up-l" d="M934.4 166.4l-422.4 428.8-422.4-428.8-51.2 51.2 473.6 467.2 473.6-467.2z" />
<glyph unicode="&#xe90c;" glyph-name="apple" d="M844.8 288c-25.6 38.4-44.8 89.6-44.8 134.4s12.8 89.6 38.4 128c12.8 19.2 38.4 44.8 70.4 70.4-19.2 25.6-44.8 44.8-64 64-38.4 25.6-83.2 38.4-128 38.4-32 0-64-6.4-108.8-19.2-38.4-12.8-64-19.2-83.2-19.2-12.8 0-44.8 6.4-83.2 19.2-44.8 12.8-83.2 19.2-108.8 19.2-70.4 0-128-32-172.8-89.6-51.2-57.6-76.8-134.4-76.8-230.4 0-102.4 32-204.8 89.6-307.2 64-108.8 121.6-160 185.6-160 19.2 0 44.8 6.4 83.2 19.2 32 12.8 64 19.2 89.6 19.2s57.6-6.4 96-19.2c38.4-12.8 64-19.2 83.2-19.2 51.2 0 102.4 38.4 160 121.6 38.4 51.2 57.6 102.4 76.8 153.6-38.4 12.8-70.4 38.4-102.4 76.8zM633.6 768c25.6 25.6 44.8 51.2 57.6 83.2s19.2 57.6 19.2 83.2c0 6.4 0 6.4 0 12.8s0 6.4 0 12.8c-76.8-19.2-128-44.8-153.6-89.6-32-44.8-51.2-96-51.2-160 32 0 51.2 6.4 64 12.8 19.2 6.4 44.8 19.2 64 44.8z" />
<glyph unicode="&#xe90d;" glyph-name="arrow-down-l" d="M934.4 537.6l-390.4-396.8v755.2h-64v-755.2l-390.4 396.8-51.2-51.2 473.6-467.2 473.6 467.2z" />
<glyph unicode="&#xe90e;" glyph-name="arrow-up-l" d="M985.6 409.6l-473.6 467.2-473.6-467.2 51.2-51.2 390.4 396.8v-755.2h64v755.2l390.4-396.8z" />
<glyph unicode="&#xe90f;" glyph-name="baiduwangpan" d="M748.8 576c0-6.4 0-19.2 0-25.6s0-6.4 6.4-6.4c51.2 6.4 96-6.4 134.4-25.6 76.8-38.4 115.2-102.4 128-185.6 0-19.2-6.4-38.4-19.2-51.2s-32-12.8-44.8 0c-12.8 6.4-19.2 19.2-25.6 38.4-6.4 64-44.8 102.4-102.4 121.6-51.2 19.2-102.4 6.4-140.8-32-89.6-89.6-179.2-179.2-275.2-268.8-38.4-44.8-89.6-70.4-153.6-76.8-121.6-6.4-224 76.8-249.6 185.6-32 140.8 64 275.2 211.2 294.4 12.8 0 32 0 44.8 0 6.4 0 12.8 0 12.8 12.8-6.4 38.4 0 83.2 19.2 121.6 38.4 83.2 102.4 128 185.6 140.8 96 12.8 192-38.4 236.8-121.6 25.6-44.8 32-76.8 32-121.6zM659.2 576c0 76.8-57.6 147.2-147.2 147.2-83.2 0-147.2-64-147.2-147.2 0-76.8 57.6-147.2 147.2-147.2 83.2 0 147.2 70.4 147.2 147.2zM236.8 448c-83.2 0-147.2-70.4-147.2-147.2s64-147.2 147.2-147.2c89.6 0 147.2 70.4 147.2 147.2 0 83.2-64 147.2-147.2 147.2zM1024 108.8c0-25.6-19.2-44.8-44.8-44.8s-44.8 19.2-44.8 44.8c0 25.6 19.2 44.8 44.8 44.8s44.8-19.2 44.8-44.8z" />
<glyph unicode="&#xe910;" glyph-name="bar-chart" d="M128 640h192v-384h-192v384zM640 512h192v-256h-192v256zM384 832h192v-576h-192v576zM64 192h832v-64h-832v64z" />
<glyph unicode="&#xe911;" glyph-name="bar-chart-l" d="M320 640h-192v-384h192v384zM256 320h-64v256h64v-256zM832 512h-192v-256h192v256zM768 320h-64v128h64v-128zM576 832h-192v-576h192v576zM512 320h-64v448h64v-448zM64 192h832v-64h-832v64z" />
<glyph unicode="&#xe912;" glyph-name="battery" d="M192 576h576v-256h-576v256zM896 512v192h-832v-512h832v192h64v128h-64zM832 256h-704v384h704v-384z" />
<glyph unicode="&#xe913;" glyph-name="battery-l" d="M896 512v192h-832v-512h832v192h64v128h-64zM832 256h-704v384h704v-384z" />
<glyph unicode="&#xe914;" glyph-name="bell" d="M768 192v320c0 121.6-83.2 217.6-192 249.6 0 0 0 6.4 0 6.4 0 38.4-25.6 64-64 64s-64-25.6-64-64c0 0 0-6.4 0-6.4-108.8-32-192-128-192-249.6v-320h-64v-64h192c0-70.4 57.6-128 128-128s128 57.6 128 128h192v64h-64zM512 64c-38.4 0-64 25.6-64 64h128c0-38.4-25.6-64-64-64z" />
<glyph unicode="&#xe915;" glyph-name="bell-l" d="M768 192v320c0 121.6-83.2 217.6-192 249.6 0 0 0 6.4 0 6.4 0 38.4-25.6 64-64 64s-64-25.6-64-64c0 0 0-6.4 0-6.4-108.8-32-192-128-192-249.6v-320h-64v-64h192c0-70.4 57.6-128 128-128s128 57.6 128 128h192v64h-64zM512 64c-38.4 0-64 25.6-64 64h128c0-38.4-25.6-64-64-64zM640 192h-320v320c0 108.8 83.2 192 192 192s192-83.2 192-192v-320h-64z" />
<glyph unicode="&#xe916;" glyph-name="bevel" d="M640 896v-64h211.2l-723.2-723.2v211.2h-64v-320h320v64h-211.2l723.2 723.2v-211.2h64v320z" />
<glyph unicode="&#xe917;" glyph-name="bilibili" d="M800 736h-51.2l44.8 44.8c19.2 19.2 19.2 57.6 0 76.8s-57.6 19.2-76.8 0l-128-121.6h-153.6l-128 121.6c-19.2 19.2-57.6 19.2-76.8 0s-19.2-57.6 0-76.8l44.8-44.8h-51.2c-89.6 0-160-70.4-160-160v-345.6c0-96 70.4-166.4 160-166.4h569.6c89.6 0 160 70.4 160 160v352c6.4 89.6-64 160-153.6 160zM844.8 230.4c0-32-25.6-57.6-57.6-57.6h-556.8c-32 0-57.6 25.6-57.6 57.6v339.2c0 32 25.6 57.6 57.6 57.6h556.8c32 0 57.6-25.6 57.6-57.6v-339.2zM345.6 512c-32 0-57.6-25.6-57.6-57.6v-57.6c0-32 25.6-57.6 57.6-57.6s57.6 25.6 57.6 57.6v57.6c0 32-25.6 57.6-57.6 57.6zM678.4 512c-32 0-57.6-25.6-57.6-57.6v-57.6c0-32 25.6-57.6 57.6-57.6s57.6 25.6 57.6 57.6v57.6c0 32-25.6 57.6-57.6 57.6z" />
<glyph unicode="&#xe918;" glyph-name="bitcoin" d="M627.2 550.4c0 70.4-102.4 57.6-134.4 57.6v-115.2c32 0 134.4-6.4 134.4 57.6zM492.8 435.2v-128c38.4 0 160-6.4 160 64s-121.6 64-160 64zM512 960c-281.6 0-512-230.4-512-512s230.4-512 512-512 512 230.4 512 512-230.4 512-512 512zM768 358.4c-6.4-89.6-76.8-115.2-172.8-121.6v-96h-57.6v96c-12.8 0-32 0-44.8 0v-96h-57.6v96c-12.8 0-25.6 0-38.4 0h-76.8l12.8 70.4c0 0 44.8 0 44.8 0 19.2 0 19.2 12.8 19.2 19.2v262.4c0 12.8-12.8 25.6-32 25.6 0 0-44.8 0-44.8 0v64h76.8c12.8 0 25.6 0 38.4 0v96h57.6v-96c12.8 0 32 0 44.8 0v89.6h57.6v-96c70.4-6.4 134.4-32 140.8-96 6.4-51.2-19.2-83.2-51.2-96 57.6-19.2 89.6-51.2 83.2-121.6z" />
<glyph unicode="&#xe919;" glyph-name="blackboard" d="M960 192v640h-896v-640h-64v-64h281.6l-57.6-115.2 57.6-25.6 76.8 140.8h313.6l70.4-140.8 57.6 25.6-57.6 115.2h281.6v64h-64zM710.4 192h-582.4v576h768v-576h-185.6zM192 256h640v448h-640v-448zM512 556.8l64-64 83.2 83.2h-83.2v64h192v-192h-64v83.2l-128-128-64 64-166.4-166.4-51.2 44.8 217.6 211.2z" />
<glyph unicode="&#xe91a;" glyph-name="blackboard-l" d="M960 192v640h-896v-640h-64v-64h281.6l-57.6-115.2 57.6-25.6 76.8 140.8h313.6l70.4-140.8 57.6 25.6-57.6 115.2h281.6v64h-64zM128 192v576h768v-576h-768zM512 576h83.2l-83.2-83.2-64 64-217.6-211.2 51.2-51.2 166.4 172.8 64-64 128 128v-83.2h64v192h-192z" />
<glyph unicode="&#xe91b;" glyph-name="block" d="M864 448h-96v256h-256v96c0 51.2-44.8 96-96 96s-96-44.8-96-96v-96h-256v-256h96c51.2 0 96-44.8 96-96s-44.8-96-96-96h-96v-256h256v96c0 51.2 44.8 96 96 96s96-44.8 96-96v-96h256v256h96c51.2 0 96 44.8 96 96s-44.8 96-96 96z" />
<glyph unicode="&#xe91c;" glyph-name="block-l" d="M864 448h-96v256h-256v96c0 51.2-44.8 96-96 96s-96-44.8-96-96v-96h-256v-256h96c51.2 0 96-44.8 96-96s-44.8-96-96-96h-96v-256h256v96c0 51.2 44.8 96 96 96s96-44.8 96-96v-96h256v256h96c51.2 0 96 44.8 96 96s-44.8 96-96 96zM864 320h-160v-256h-128v32c0 89.6-70.4 160-160 160s-160-70.4-160-160v-32h-128v128h32c89.6 0 160 70.4 160 160s-70.4 160-160 160h-32v128h256v160c0 19.2 12.8 32 32 32s32-12.8 32-32v-160h256v-256h160c19.2 0 32-12.8 32-32s-12.8-32-32-32z" />
<glyph unicode="&#xe91d;" glyph-name="bluetooth" d="M512 672v-147.2l83.2 83.2zM512 224l83.2 64-83.2 83.2zM832 454.4c0 102.4-12.8 441.6-332.8 441.6s-332.8-332.8-332.8-441.6v0c0 0 0-6.4 0-6.4s0-6.4 0-6.4v0c0-108.8 12.8-441.6 332.8-441.6 313.6 0 332.8 339.2 332.8 441.6v0c0 0 0 6.4 0 6.4s0 6.4 0 6.4v0zM684.8 288l-236.8-192v275.2l-102.4-102.4-44.8 44.8 134.4 134.4-140.8 134.4 44.8 44.8 108.8-102.4v275.2l236.8-192-160-160 160-160z" />
<glyph unicode="&#xe91e;" glyph-name="bluetooth-l" d="M684.8 608l-236.8 192v-275.2l-102.4 108.8-51.2-51.2 140.8-134.4-134.4-134.4 44.8-44.8 102.4 102.4v-275.2l236.8 192-160 160 160 160zM512 672l83.2-64-83.2-83.2v147.2zM595.2 288l-83.2-64v147.2l83.2-83.2z" />
<glyph unicode="&#xe91f;" glyph-name="board" d="M960 192v640h-896v-640h-64v-64h281.6l-57.6-115.2 57.6-25.6 76.8 140.8h313.6l70.4-140.8 57.6 25.6-57.6 115.2h281.6v64h-64zM710.4 192h-582.4v576h768v-576h-185.6zM192 256h640v448h-640v-448z" />
<glyph unicode="&#xe920;" glyph-name="board-l" d="M960 192v640h-896v-640h-64v-64h281.6l-57.6-115.2 57.6-25.6 76.8 140.8h313.6l70.4-140.8 57.6 25.6-57.6 115.2h281.6v64h-64zM128 192v576h768v-576h-768z" />
<glyph unicode="&#xe921;" glyph-name="book" d="M320 768h576v-64h-576v64zM288 896c-89.6 0-160-70.4-160-160v-640c0-89.6 70.4-160 160-160h608v704h-608c-51.2 0-96 44.8-96 96s44.8 96 96 96h608v64h-608zM448 576h320v-345.6l-160 153.6-160-153.6v345.6z" />
<glyph unicode="&#xe922;" glyph-name="book-l" d="M320 768h576v-64h-576v64zM288 896c-76.8 0-140.8-57.6-153.6-128h-6.4v-672c0-89.6 70.4-160 160-160h608v704h-608c-51.2 0-96 44.8-96 96s44.8 96 96 96h608v64h-608zM704 576v-198.4l-96 96-96-96v198.4h192zM288 576h160v-345.6l160 153.6 160-153.6v345.6h64v-576h-544c-51.2 0-96 44.8-96 96v512c25.6-19.2 57.6-32 96-32z" />
<glyph unicode="&#xe923;" glyph-name="bookmark" d="M192 896v-896l320 256 320-256v896z" />
<glyph unicode="&#xe924;" glyph-name="bookmark-l" d="M192 896v-896l320 256 320-256v896h-640zM768 134.4l-217.6 172.8-38.4 32-38.4-32-217.6-172.8v697.6h512v-697.6z" />
<glyph unicode="&#xe925;" glyph-name="box" d="M64 832h896v-256h-896v256zM128 64h768v448h-768v-448zM320 448h384v-64h-384v64z" />
<glyph unicode="&#xe926;" glyph-name="box-l" d="M64 832v-256h64v-512h768v512h64v256h-896zM832 128h-640v448h640v-448zM896 640h-768v128h768v-128zM320 448h384v-64h-384v64z" />
<glyph unicode="&#xe927;" glyph-name="briefcase" d="M684.8 704v64c0 38.4-25.6 64-64 64h-217.6c-38.4 0-64-25.6-64-64v-64h-275.2v-704h896v704h-275.2zM704 448h64v-64h-64v64zM403.2 768h217.6v-64h-217.6v64zM256 448h64v-64h-64v64zM896 64h-768v313.6c32-32 76.8-51.2 128-57.6v-64h64v64h384v-64h64v64c51.2 6.4 96 25.6 128 57.6v-313.6z" />
<glyph unicode="&#xe928;" glyph-name="briefcase-l" d="M684.8 704v64c0 38.4-25.6 64-64 64h-217.6c-38.4 0-64-25.6-64-64v-64h-275.2v-704h896v704h-275.2zM403.2 768h217.6v-64h-217.6v64zM128 640h768v-115.2c0-76.8-57.6-134.4-128-140.8v64h-64v-64h-384v64h-64v-64c-70.4 6.4-128 70.4-128 140.8v115.2zM128 64v313.6c32-32 76.8-51.2 128-57.6v-64h64v64h384v-64h64v64c51.2 6.4 96 25.6 128 57.6v-313.6h-768z" />
<glyph unicode="&#xe929;" glyph-name="brush" d="M787.2 595.2c-64 0-128 25.6-172.8 70.4v0 32c6.4 19.2 12.8 38.4 19.2 57.6 12.8 64-6.4 134.4-57.6 172.8-12.8 19.2-38.4 32-64 32s-51.2-12.8-70.4-25.6c-51.2-38.4-64-108.8-57.6-172.8 6.4-19.2 6.4-44.8 19.2-57.6v0-38.4c-44.8-44.8-102.4-70.4-166.4-70.4h-44.8v-595.2h640v595.2h-44.8zM512 832c19.2 0 32-12.8 32-32s-12.8-32-32-32-32 12.8-32 32c0 19.2 12.8 32 32 32zM768 64h-64v128h-64v-128h-64v192h-64v-192h-128v64h-64v-64h-64v313.6h512v-313.6zM768 448h-512v64h512v-64z" />
<glyph unicode="&#xe92a;" glyph-name="brush-l" d="M787.2 595.2c-64 0-128 25.6-172.8 70.4v0 32c6.4 19.2 12.8 38.4 19.2 57.6 12.8 64-6.4 134.4-57.6 172.8-12.8 19.2-38.4 32-64 32s-51.2-12.8-70.4-25.6c-51.2-38.4-64-108.8-57.6-172.8 6.4-19.2 6.4-44.8 19.2-57.6v0-38.4c-44.8-44.8-102.4-70.4-166.4-70.4h-44.8v-595.2h640v595.2h-44.8zM768 64h-64v128h-64v-128h-64v192h-64v-192h-128v64h-64v-64h-64v313.6h512v-313.6zM256 531.2c70.4 6.4 140.8 38.4 192 89.6l19.2 19.2v76.8l-6.4 12.8c0 6.4-6.4 19.2-12.8 44.8-6.4 32 0 83.2 38.4 108.8 6.4 6.4 19.2 12.8 25.6 12.8s19.2-6.4 25.6-12.8c38.4-25.6 44.8-76.8 38.4-108.8-6.4-25.6-12.8-38.4-12.8-44.8l-6.4-12.8v-76.8l19.2-19.2c51.2-51.2 121.6-83.2 192-89.6v-83.2h-512v83.2zM544 800c0-17.673-14.327-32-32-32s-32 14.327-32 32c0 17.673 14.327 32 32 32s32-14.327 32-32z" />
<glyph unicode="&#xe92b;" glyph-name="bug" d="M576 960h-128l-192-256h512zM896 768v-128h-768v128h-64v-192h89.6l57.6-128h-147.2v-128h64v64h115.2l32-70.4-147.2-121.6v-128h64v96l108.8 89.6 32-70.4c25.6-51.2 64-89.6 115.2-102.4v435.2h128v-435.2c51.2 19.2 96 57.6 115.2 102.4l32 70.4 108.8-89.6v-96h64v128l-147.2 121.6 32 70.4h115.2v-64h64v128h-147.2l57.6 128h89.6v192h-64z" />
<glyph unicode="&#xe92c;" glyph-name="bug-l" d="M576 960h-128l-192-256h512l-192 256zM480 896h64l96-128h-256l96 128zM896 768v-128h-768v128h-64v-192h89.6l172.8-396.8c38.4-70.4 108.8-115.2 185.6-115.2s147.2 44.8 179.2 115.2l179.2 396.8h89.6v192h-64zM633.6 204.8c-19.2-38.4-51.2-64-89.6-76.8v320h-64v-313.6c-38.4 12.8-70.4 38.4-89.6 76.8l-166.4 364.8h576l-166.4-371.2zM128 192v-128h64v96l108.8 89.6-25.6 64zM128 384h115.2l-32 64h-147.2v-128h64zM812.8 448l-32-64h115.2v-64h64v128h-64zM723.2 249.6l108.8-89.6v-96h64v128l-147.2 121.6z" />
<glyph unicode="&#xe92d;" glyph-name="building" d="M448 192h128v-256h-128v256zM128 960v-1024h256v320h256v-320h256v1024h-768zM320 576v-64h-64v64h64zM256 640v64h64v-64h-64zM320 448v-64h-64v64h64zM320 320v-64h-64v64h64zM320 192v-64h-64v64h64zM320 768h-64v64h64v-64zM640 704v-64h-64v64h64zM576 768v64h64v-64h-64zM640 576v-64h-64v64h64zM640 448v-64h-64v64h64zM768 704v-64h-64v64h64zM704 768v64h64v-64h-64zM768 576v-64h-64v64h64zM768 448v-64h-64v64h64zM768 320v-64h-64v64h64zM768 192v-64h-64v64h64zM448 704v-64h-64v64h64zM384 768v64h64v-64h-64zM448 576v-64h-64v64h64zM448 448v-64h-64v64h64z" />
<glyph unicode="&#xe92e;" glyph-name="building-l" d="M896 960h-768v-1024h768v1024zM192 0v896h640v-896h-192v256h-256v-256h-192zM448 0v192h128v-192h-128zM320 832h-64v-64h64v64zM320 704h-64v-64h64v64zM320 576h-64v-64h64v64zM320 448h-64v-64h64v64zM320 320h-64v-64h64v64zM320 192h-64v-64h64v64zM768 832h-64v-64h64v64zM768 704h-64v-64h64v64zM768 576h-64v-64h64v64zM768 448h-64v-64h64v64zM768 320h-64v-64h64v64zM768 192h-64v-64h64v64zM640 832h-64v-64h64v64zM640 704h-64v-64h64v64zM640 576h-64v-64h64v64zM640 448h-64v-64h64v64zM448 832h-64v-64h64v64zM448 704h-64v-64h64v64zM448 576h-64v-64h64v64zM448 448h-64v-64h64v64z" />
<glyph unicode="&#xe92f;" glyph-name="buy" d="M896 704h-192v64c0 108.8-83.2 192-192 192s-192-83.2-192-192v-64h-192l-64-704h896l-64 704zM384 556.8v-44.8h-64v64h64v-19.2zM384 768c0 70.4 57.6 128 128 128s128-57.6 128-128v-64h-256v64zM704 556.8v-44.8h-64v64h64v-19.2z" />
<glyph unicode="&#xe930;" glyph-name="buy-l" d="M134.4 396.8v0zM672 672v0zM160 672h192v96c0 89.6 70.4 160 160 160s160-70.4 160-160c0 89.6-70.4 160-160 160s-160-70.4-160-160v-96h-192zM512 960c-108.8 0-192-83.2-192-192v-64h-192l-64-704h896l-64 704h-192v64c0 108.8-83.2 192-192 192v0zM384 704v64c0 70.4 57.6 128 128 128s128-57.6 128-128v-64h-256zM134.4 64l51.2 576h652.8l51.2-576h-755.2zM640 556.8v-44.8h64v64h-64zM704 576h-64v-64h64v64zM320 556.8v-44.8h64v64h-64zM384 576h-64v-64h64v64z" />
<glyph unicode="&#xe931;" glyph-name="calculator" d="M384 704h320v-128h-320v128zM192 896v-896h704v896h-704zM384 128h-64v64h64v-64zM384 256h-64v64h64v-64zM384 384h-64v64h64v-64zM512 128h-64v64h64v-64zM512 256h-64v64h64v-64zM512 384h-64v64h64v-64zM640 128h-64v64h64v-64zM640 256h-64v64h64v-64zM640 384h-64v64h64v-64zM768 192v-64h-64v192h64v-128zM768 384h-64v64h64v-64zM768 512h-448v256h448v-256z" />
<glyph unicode="&#xe932;" glyph-name="calculator-l" d="M896 896h-704v-896h704v896zM256 64v768h576v-768h-576zM768 768h-448v-256h448v256zM384 576v128h320v-128h-320zM384 448h-64v-64h64v64zM512 448h-64v-64h64v64zM640 448h-64v-64h64v64zM768 448h-64v-64h64v64zM384 320h-64v-64h64v64zM512 320h-64v-64h64v64zM640 320h-64v-64h64v64zM768 320h-64v-192h64v192zM384 192h-64v-64h64v64zM512 192h-64v-64h64v64zM640 192h-64v-64h64v64z" />
<glyph unicode="&#xe933;" glyph-name="calendar" d="M256 896h64v-64h-64v64zM640 896h64v-64h-64v64zM832 832h-128v-64h-64v64h-320v-64h-64v64h-192v-768h832v768h-64zM832 128h-704v448h704v-448zM448 512h64v-64h-64v64zM320 512h64v-64h-64v64zM576 512h64v-64h-64v64zM704 512h64v-64h-64v64zM256 384h64v-64h-64v64zM384 384h64v-64h-64v64zM512 384h64v-64h-64v64zM640 384h64v-64h-64v64zM192 256h64v-64h-64v64zM320 256h64v-64h-64v64zM448 256h64v-64h-64v64zM576 256h64v-64h-64v64z" />
<glyph unicode="&#xe934;" glyph-name="calendar-l" d="M512 512h-64v-64h64v64zM384 512h-64v-64h64v64zM640 512h-64v-64h64v64zM768 512h-64v-64h64v64zM320 384h-64v-64h64v64zM448 384h-64v-64h64v64zM576 384h-64v-64h64v64zM704 384h-64v-64h64v64zM256 256h-64v-64h64v64zM384 256h-64v-64h64v64zM512 256h-64v-64h64v64zM640 256h-64v-64h64v64zM704 896h-64v-64h-320v64h-64v-64h-192v-768h832v768h-192v64zM640 704h64v64h128v-128h-704v128h128v-64h64v64h320v-64zM128 128v448h704v-448h-704z" />
<glyph unicode="&#xe935;" glyph-name="camber" d="M512 627.2c115.2 0 224-32 320-96l-320-320-320 320c96 64 204.8 96 320 96zM512 755.2c-185.6 0-371.2-70.4-512-211.2v0l512-512 512 512c-140.8 140.8-326.4 211.2-512 211.2v0z" />
<glyph unicode="&#xe936;" glyph-name="camber-l" d="M512 755.2c-185.6 0-371.2-70.4-512-211.2l512-512 512 512c-140.8 140.8-326.4 211.2-512 211.2zM89.6 544c121.6 96 268.8 147.2 422.4 147.2s300.8-51.2 422.4-147.2l-422.4-422.4-422.4 422.4z" />
<glyph unicode="&#xe937;" glyph-name="camber-o" d="M512 755.2c-185.6 0-371.2-70.4-512-211.2l512-512 512 512c-140.8 140.8-326.4 211.2-512 211.2z" />
<glyph unicode="&#xe938;" glyph-name="camera" d="M384 768v64h-256v-64h-64v-704h896v704h-576zM416 192c-121.6 0-224 102.4-224 224s102.4 224 224 224 224-102.4 224-224-102.4-224-224-224zM832 576h-192v64h192v-64zM416 576c-89.6 0-160-70.4-160-160s70.4-160 160-160 160 70.4 160 160c0 89.6-70.4 160-160 160zM416 320c-51.2 0-96 44.8-96 96s44.8 96 96 96c51.2 0 96-44.8 96-96s-44.8-96-96-96z" />
<glyph unicode="&#xe939;" glyph-name="camera-l" d="M128 128h768v576h-768v-576zM64 768h64.141v64h256.036v-64h575.822v-704h-896v704zM416 192c-123.712 0-224 100.288-224 224s100.288 224 224 224c123.712 0 224-100.288 224-224s-100.288-224-224-224zM416 256c88.366 0 160 71.634 160 160s-71.634 160-160 160c-88.366 0-160-71.634-160-160s71.634-160 160-160zM640 640h192v-64h-192v64zM320 416c0 53.019 42.611 96 96 96 53.019 0 96-42.611 96-96 0-53.019-42.611-96-96-96-53.019 0-96 42.611-96 96z" />
<glyph unicode="&#xe93a;" glyph-name="category-l" d="M256 768h-64v-64h64v64zM896 768h-576v-64h576v64zM256 512h-64v-64h64v64zM896 512h-576v-64h576v64zM256 256h-64v-64h64v64zM896 256h-576v-64h576v64z" />
<glyph unicode="&#xe93b;" glyph-name="certificate" d="M256 704h512v-64h-512v64zM576-25.6l64 32 64-32v153.6h-128zM768 320c0-70.692-57.308-128-128-128s-128 57.308-128 128c0 70.692 57.308 128 128 128s128-57.308 128-128zM960 896h-896v-832h448v115.2c-38.4 32-64 83.2-64 140.8 0 108.8 83.2 192 192 192s192-83.2 192-192c0-57.6-25.6-108.8-64-140.8v-115.2h192v832zM384 192h-192v64h192v-64zM384 320h-192v64h192v-64zM384 448h-192v64h192v-64zM832 576h-640v192h640v-192z" />
<glyph unicode="&#xe93c;" glyph-name="certificate-l" d="M832 768h-640v-192h640v192zM768 640h-512v64h512v-64zM192 384h192v-64h-192v64zM192 512h192v-64h-192v64zM192 256h192v-64h-192v64zM64 896v-832h448v-128l128 64 128-64v128h192v832h-896zM704 38.4l-64 32-64-32v89.6h128v-89.6zM640 192c-70.4 0-128 57.6-128 128s57.6 128 128 128 128-57.6 128-128c0-70.4-57.6-128-128-128zM896 128h-128v51.2c38.4 32 64 83.2 64 140.8 0 108.8-83.2 192-192 192s-192-83.2-192-192c0-57.6 25.6-108.8 64-140.8v-51.2h-384v704h768v-704z" />
<glyph unicode="&#xe93d;" glyph-name="chemistry" d="M947.2 83.2l-307.2 512v300.8h64v64h-384v-64h64v-300.8l-89.6-147.2-217.6-371.2c-38.4-64 6.4-140.8 83.2-140.8h704c76.8 0 121.6 83.2 83.2 147.2zM416 256c-19.2 0-32 12.8-32 32s12.8 32 32 32c19.2 0 32-12.8 32-32s-12.8-32-32-32zM576 128c-38.4 0-64 25.6-64 64s25.6 64 64 64c38.4 0 64-25.6 64-64s-25.6-64-64-64zM371.2 448l70.4 115.2 6.4 12.8v320h128v-320l6.4-12.8 70.4-115.2h-281.6z" />
<glyph unicode="&#xe93e;" glyph-name="chemistry-l" d="M576 288c-51.2 0-96-44.8-96-96s44.8-96 96-96 96 44.8 96 96-44.8 96-96 96zM576 160c-19.2 0-32 12.8-32 32s12.8 32 32 32c19.2 0 32-12.8 32-32s-12.8-32-32-32zM448 288c0-17.673-14.327-32-32-32s-32 14.327-32 32c0 17.673 14.327 32 32 32s32-14.327 32-32zM947.2 83.2l-307.2 512v300.8h64v64h-384v-64h64v-300.8l-89.6-147.2-217.6-371.2c-38.4-64 6.4-140.8 83.2-140.8h704c76.8 0 121.6 83.2 83.2 147.2zM441.6 563.2l6.4 12.8v320h128v-320l6.4-12.8 70.4-115.2h-281.6l70.4 115.2zM896 19.2c0 0-6.4 0 0 0-6.4-6.4-6.4-12.8-12.8-12.8-6.4-6.4-12.8-6.4-19.2-6.4h-704c-19.2 0-25.6 12.8-25.6 12.8s0 0 0 6.4c0 0 0 6.4 0 6.4 0 6.4 0 12.8 6.4 19.2l192 339.2h358.4l198.4-339.2c6.4-6.4 6.4-19.2 6.4-25.6z" />
<glyph unicode="&#xe93f;" glyph-name="choose-list-l" d="M128 576h192v192h-192v-192zM192 704h64v-64h-64v64zM384 704h512v-64h-512v64zM128 320h192v192h-192v-192zM192 448h64v-64h-64v64zM384 448h512v-64h-512v64zM128 64h192v192h-192v-192zM192 192h64v-64h-64v64zM384 192h512v-64h-512v64z" />
<glyph unicode="&#xe940;" glyph-name="chrome" d="M256 512l-147.2 256c96 115.2 243.2 192 403.2 192 185.6 0 352-102.4 441.6-249.6h-416c-6.4 0-12.8 0-25.6 0-121.6 0-224-83.2-256-198.4v0zM697.6 633.6h294.4c19.2-57.6 32-121.6 32-185.6 0-281.6-224-512-505.6-512l211.2 364.8c32 44.8 44.8 96 44.8 147.2 0 70.4-32 140.8-76.8 185.6v0zM326.4 448c0 102.4 83.2 185.6 185.6 185.6s185.6-83.2 185.6-185.6-83.2-185.6-185.6-185.6-185.6 83.2-185.6 185.6zM582.4 198.4l-147.2-256c-243.2 38.4-435.2 249.6-435.2 505.6 0 89.6 25.6 179.2 64 249.6l211.2-364.8c44.8-89.6 134.4-153.6 236.8-153.6 25.6 6.4 44.8 12.8 70.4 19.2z" />
<glyph unicode="&#xe941;" glyph-name="circle" d="M512 736c160 0 288-128 288-288s-128-288-288-288-288 128-288 288 128 288 288 288zM512 864c-230.4 0-416-185.6-416-416s185.6-416 416-416 416 185.6 416 416-185.6 416-416 416v0z" />
<glyph unicode="&#xe942;" glyph-name="circle-l" d="M544 864c-230.4 0-416-185.6-416-416s185.6-416 416-416 416 185.6 416 416-185.6 416-416 416zM544 96c-192 0-352 160-352 352s160 352 352 352 352-160 352-352-160-352-352-352z" />
<glyph unicode="&#xe943;" glyph-name="circle-o" d="M928 448c0-229.75-186.25-416-416-416s-416 186.25-416 416c0 229.75 186.25 416 416 416s416-186.25 416-416z" />
<glyph unicode="&#xe944;" glyph-name="clip-l" d="M448-6.4c-89.6 0-160 70.4-160 160v512c0 121.6 102.4 224 224 224s224-102.4 224-224v-512h-64v512c0 89.6-70.4 160-160 160s-160-70.4-160-160v-512c0-51.2 44.8-96 96-96s96 44.8 96 96v448c0 19.2-12.8 32-32 32s-32-12.8-32-32v-320h-64v320c0 51.2 44.8 96 96 96s96-44.8 96-96v-448c0-89.6-70.4-160-160-160z" />
<glyph unicode="&#xe945;" glyph-name="clock" d="M320 819.2c-19.2 6.4-38.4 12.8-64 12.8-108.8 0-192-83.2-192-192 0-32 6.4-57.6 19.2-89.6 38.4 121.6 128 217.6 236.8 268.8zM768 832c-25.6 0-44.8-6.4-64-12.8 108.8-51.2 198.4-147.2 236.8-268.8 12.8 32 19.2 57.6 19.2 89.6 0 108.8-83.2 192-192 192zM896 416c0 211.2-172.8 384-384 384s-384-172.8-384-384c0-121.6 57.6-230.4 147.2-300.8l-51.2-96 57.6-25.6 44.8 89.6c57.6-32 121.6-51.2 185.6-51.2s128 19.2 179.2 44.8l44.8-89.6 57.6 25.6-51.2 96c96 76.8 153.6 185.6 153.6 307.2zM448 384v256h64v-192h192v-64h-256z" />
<glyph unicode="&#xe946;" glyph-name="clock-l" d="M230.4 768c25.6 19.2 57.6 38.4 89.6 51.2-19.2 6.4-38.4 12.8-64 12.8-108.8 0-192-83.2-192-192 0-32 6.4-57.6 19.2-89.6 12.8 32 25.6 64 44.8 96 25.6 44.8 64 83.2 102.4 121.6zM768 832c-25.6 0-44.8-6.4-64-12.8 32-12.8 64-32 89.6-57.6 38.4-32 76.8-70.4 102.4-115.2 19.2-32 32-57.6 44.8-96 12.8 32 19.2 57.6 19.2 89.6 0 108.8-83.2 192-192 192zM896 416c0 211.2-172.8 384-384 384s-384-172.8-384-384c0-121.6 57.6-230.4 147.2-300.8l-51.2-96 57.6-25.6 44.8 89.6c57.6-32 121.6-51.2 185.6-51.2s128 19.2 179.2 44.8l44.8-89.6 57.6 25.6-51.2 96c96 76.8 153.6 185.6 153.6 307.2zM192 416c0 179.2 140.8 320 320 320s320-140.8 320-320-140.8-320-320-320-320 140.8-320 320zM512 640h-64v-256h256v64h-192z" />
<glyph unicode="&#xe947;" glyph-name="close-l" d="M921.6 806.4l-51.2 51.2-358.4-364.8-358.4 364.8-51.2-51.2 364.8-358.4-364.8-358.4 51.2-51.2 358.4 364.8 358.4-364.8 51.2 51.2-364.8 358.4z" />
<glyph unicode="&#xe948;" glyph-name="clothes" d="M512 640c38.4 0 64 25.6 64 64v64h-128v-64c0-38.4 25.6-64 64-64zM640 768v-64c0-70.4-57.6-128-128-128s-128 57.6-128 128v64h-320v-320h192v-384h512v384h192v320h-320z" />
<glyph unicode="&#xe949;" glyph-name="clothes-l" d="M640 768h-576v-320h192v-384h512v384h192v320h-320zM576 704c0-38.4-25.6-64-64-64s-64 25.6-64 64h128zM896 512h-192v-384h-384v384h-192v192h256c0-70.4 57.6-128 128-128s128 57.6 128 128h256v-192z" />
<glyph unicode="&#xe94a;" glyph-name="cloud" d="M800 582.4c6.4 166.4-128 294.4-288 294.4s-294.4-128-294.4-294.4c-121.6 0-217.6-96-217.6-217.6s96-217.6 217.6-217.6h582.4c121.6 0 217.6 96 217.6 217.6s-96 217.6-217.6 217.6z" />
<glyph unicode="&#xe94b;" glyph-name="cloud-download-l" d="M800 608c-12.8 147.2-140.8 256-288 256s-268.8-115.2-288-256c-108.8-12.8-192-108.8-192-224 0-121.6 102.4-224 224-224h512c121.6 0 224 102.4 224 224 0 115.2-83.2 204.8-192 224zM768 224h-512c-89.6 0-160 70.4-160 160s70.4 160 160 160h32v32c0 121.6 102.4 224 224 224s224-102.4 224-224v-32h32c89.6 0 160-70.4 160-160s-70.4-160-160-160zM544 396.8v243.2h-64v-243.2l-134.4 140.8-51.2-51.2 217.6-211.2 217.6 211.2-51.2 51.2z" />
<glyph unicode="&#xe94c;" glyph-name="cloud-l" d="M806.4 582.4c0 160-128 294.4-294.4 294.4s-294.4-128-294.4-294.4c-121.6 0-217.6-96-217.6-217.6s96-217.6 217.6-217.6h582.4c121.6 0 217.6 96 217.6 217.6s-89.6 217.6-211.2 217.6zM806.4 211.2h-588.8c-83.2 0-153.6 70.4-153.6 153.6s70.4 153.6 153.6 153.6h64v64c0 128 102.4 230.4 230.4 230.4s230.4-102.4 230.4-230.4v-64h64c83.2 0 153.6-70.4 153.6-153.6s-70.4-153.6-153.6-153.6z" />
<glyph unicode="&#xe94d;" glyph-name="cloud-upload-l" d="M800 608c-12.8 147.2-140.8 256-288 256s-268.8-115.2-288-256c-108.8-12.8-192-108.8-192-224 0-121.6 102.4-224 224-224h512c121.6 0 224 102.4 224 224 0 115.2-83.2 204.8-192 224zM768 224h-224v275.2l134.4-134.4 44.8 44.8-211.2 211.2-217.6-211.2 44.8-44.8 134.4 134.4v-275.2h-217.6c-89.6 0-160 70.4-160 160s70.4 160 160 160h32v32c0 121.6 102.4 224 224 224s224-102.4 224-224v-32h32c89.6 0 160-70.4 160-160s-70.4-160-160-160z" />
<glyph unicode="&#xe94e;" glyph-name="code-branch" d="M832 640c0 70.4-57.6 128-128 128s-128-57.6-128-128c0-44.8 25.6-83.2 57.6-108.8-19.2-57.6-64-108.8-134.4-121.6-44.8 0-83.2-19.2-115.2-38.4v288c38.4 19.2 64 64 64 108.8 0 70.4-57.6 128-128 128s-128-57.6-128-128c0-44.8 25.6-89.6 64-108.8v-422.4c-38.4-19.2-64-64-64-108.8 0-70.4 57.6-128 128-128s128 57.6 128 128c0 32-12.8 64-38.4 89.6 25.6 38.4 64 64 115.2 70.4 121.6 19.2 217.6 115.2 236.8 236.8 44.8 25.6 70.4 64 70.4 115.2zM320 832c38.4 0 64-25.6 64-64s-25.6-64-64-64-64 25.6-64 64 25.6 64 64 64zM320 64c-38.4 0-64 25.6-64 64s25.6 64 64 64 64-25.6 64-64-25.6-64-64-64zM704 576c-38.4 0-64 25.6-64 64s25.6 64 64 64 64-25.6 64-64-25.6-64-64-64z" />
<glyph unicode="&#xe94f;" glyph-name="code-file" d="M448 896l-256-256h256zM512 896v-320h-320v-576h704v896h-384zM614.4 486.4l44.8 44.8 128-128-121.6-128-51.2 44.8 89.6 83.2-89.6 83.2zM467.2 486.4l-83.2-83.2 89.6-83.2-51.2-44.8-128 128 128 128 44.8-44.8z" />
<glyph unicode="&#xe950;" glyph-name="code-file-l" d="M422.4 537.6l-128-134.4 128-128 51.2 44.8-89.6 83.2 89.6 83.2-51.2 51.2zM665.6 537.6l-51.2-51.2 89.6-83.2-89.6-83.2 51.2-44.8 128 128-128 134.4zM896 896h-448l-256-256v-640h704v896zM256 64v512h256v256h320v-768h-576zM281.6 640l166.4 166.4v-166.4h-166.4z" />
<glyph unicode="&#xe951;" glyph-name="code-fork" d="M832 768c0 70.4-57.6 128-128 128s-128-57.6-128-128c0-44.8 25.6-89.6 64-108.8v-57.6l-128-128-128 128v57.6c38.4 19.2 64 64 64 108.8 0 70.4-57.6 128-128 128s-128-57.6-128-128c0-44.8 25.6-89.6 64-108.8v-108.8l192-192v-115.2c-38.4-19.2-70.4-64-70.4-115.2 0-70.4 57.6-128 128-128s128 57.6 128 128c0 44.8-25.6 83.2-57.6 108.8v121.6l192 192v108.8c38.4 19.2 64 64 64 108.8zM320 832c38.4 0 64-25.6 64-64s-25.6-64-64-64-64 25.6-64 64 25.6 64 64 64zM505.6 64c-38.4 0-64 25.6-64 64s25.6 64 64 64 64-25.6 64-64-25.6-64-64-64zM704 704c-38.4 0-64 25.6-64 64s25.6 64 64 64 64-25.6 64-64-25.6-64-64-64z" />
<glyph unicode="&#xe952;" glyph-name="code-l" d="M256 672l-243.2-243.2 204.8-211.2 44.8 44.8-160 166.4 198.4 198.4zM768 672l-44.8-44.8 198.4-198.4-160-166.4 44.8-44.8 211.2 211.2zM333.875 338.312l294.154 294.154 45.254-45.254-294.154-294.154-45.254 45.254z" />
<glyph unicode="&#xe953;" glyph-name="coin" d="M512 896c-249.6 0-448-198.4-448-448s198.4-448 448-448 448 198.4 448 448c0 249.6-198.4 448-448 448zM672 454.4h-128v-64h128v-64h-128v-128h-64v128h-128v64h128v64h-128v64h115.2l-108.8 108.8 44.8 44.8 108.8-108.8 102.4 102.4 44.8-44.8-102.4-102.4h115.2v-64z" />
<glyph unicode="&#xe954;" glyph-name="coin-l" d="M512 896c-249.6 0-448-198.4-448-448s198.4-448 448-448 448 198.4 448 448c0 249.6-198.4 448-448 448zM512 64c-211.2 0-384 172.8-384 384s172.8 384 384 384 384-172.8 384-384-172.8-384-384-384zM665.6 627.2l-51.2 44.8-102.4-108.8-102.4 108.8-51.2-44.8 108.8-108.8h-115.2v-64h128v-64h-128v-64h128v-128h64v128h128v64h-128v64h128v64h-115.2z" />
<glyph unicode="&#xe955;" glyph-name="collection" d="M64 832h896v-512h-896v512zM128 384h768v384h-768v-384zM192 128h640v-64h-640v64zM128 256h768v-64h-768v64zM192 576h128v-192h-128v192zM448 704h128v-320h-128v320zM704 512h128v-128h-128v128z" />
<glyph unicode="&#xe956;" glyph-name="come-l" d="M448 832v-64h320v-640h-320v-64h384v768zM473.6 230.4l211.2 217.6-211.2 217.6-51.2-51.2 140.8-134.4h-435.2v-64h435.2l-140.8-134.4z" />
<glyph unicode="&#xe957;" glyph-name="command" d="M64 832v-704h896v704h-896zM512 448h-64v-64h-64v-64h-64v64h64v64h64v64h-64v64h-64v64h64v-64h64v-64h64v-64zM768 320h-192v64h192v-64z" />
<glyph unicode="&#xe958;" glyph-name="command-l" d="M64 832v-704h896v704h-896zM896 192h-768v576h768v-576zM320 640h64v-64h-64v64zM320 384h64v-64h-64v64zM384 576h64v-64h-64v64zM384 448h64v-64h-64v64zM448 512h64v-64h-64v64zM576 384h192v-64h-192v64z" />
<glyph unicode="&#xe959;" glyph-name="commed2" d="M64 896v-192h960v192h-960zM704 768h-64v64h64v-64zM832 768h-64v64h64v-64zM960 768h-64v64h64v-64zM64 0h960v640h-960v-640zM614.4 224l160 275.2 57.6-32-160-275.2-57.6 32zM544 275.2c19.2 0 32-12.8 32-32s-12.8-32-32-32-32 12.8-32 32 12.8 32 32 32zM544 339.2c-19.2 0-32 19.2-32 32s12.8 32 32 32 32-12.8 32-32-12.8-32-32-32zM422.4 384c-6.4 12.8-6.4 19.2-12.8 25.6-6.4 12.8-25.6 12.8-38.4 12.8-19.2 0-32-6.4-44.8-25.6-12.8-12.8-19.2-38.4-19.2-64s6.4-44.8 19.2-64c12.8-6.4 25.6-12.8 44.8-12.8s32 6.4 38.4 19.2c6.4 6.4 6.4 12.8 12.8 25.6h51.2c-6.4-25.6-12.8-51.2-32-64s-44.8-25.6-70.4-25.6c-32 0-64 12.8-83.2 32-19.2 25.6-32 57.6-32 96 0 44.8 12.8 76.8 32 102.4 19.2 19.2 44.8 32 76.8 32 38.4 0 70.4-12.8 89.6-38.4 12.8-19.2 19.2-38.4 19.2-51.2h-51.2z" />
<glyph unicode="&#xe95a;" glyph-name="commed2-l" d="M64 896v-896h960v896h-960zM960 64h-832v576h832v-576zM960 704h-64v64h-64v-64h-64v64h-64v-64h-64v64h-64v-64h-448v128h832v-128zM371.2 211.2c25.6 0 51.2 6.4 70.4 25.6s32 38.4 32 64h-51.2c-6.4-12.8-6.4-19.2-12.8-25.6-6.4-12.8-25.6-19.2-38.4-19.2-19.2 0-32 6.4-44.8 19.2s-19.2 32-19.2 64 6.4 51.2 19.2 64c12.8 12.8 25.6 25.6 44.8 25.6s32-6.4 38.4-12.8c6.4-12.8 6.4-19.2 12.8-32h51.2c0 12.8-6.4 32-19.2 44.8-19.2 25.6-44.8 38.4-89.6 38.4-32 0-57.6-12.8-76.8-32s-32-51.2-32-96c0-38.4 12.8-70.4 32-96 19.2-19.2 44.8-32 83.2-32zM576 371.2c0-17.673-14.327-32-32-32s-32 14.327-32 32c0 17.673 14.327 32 32 32s32-14.327 32-32zM576 243.2c0-17.673-14.327-32-32-32s-32 14.327-32 32c0 17.673 14.327 32 32 32s32-14.327 32-32zM621.536 225.53l160 277.12 55.424-32-160-277.12-55.424 32z" />
<glyph unicode="&#xe95b;" glyph-name="comment" d="M697.6 883.2h-352c-172.8 0-326.4-128-339.2-294.4-19.2-198.4 134.4-358.4 326.4-358.4h179.2v-217.6l313.6 211.2c102.4 64 172.8 166.4 192 288 6.4 6.4 6.4 25.6 6.4 38.4 0 185.6-147.2 332.8-326.4 332.8z" />
<glyph unicode="&#xe95c;" glyph-name="comment-l" d="M697.6 883.2h-352c-172.8 0-326.4-128-339.2-294.4-19.2-198.4 134.4-358.4 326.4-358.4h179.2v-217.6l313.6 211.2c102.4 64 172.8 166.4 192 288 6.4 6.4 6.4 25.6 6.4 38.4 0 185.6-147.2 332.8-326.4 332.8zM953.6 512c-19.2-96-76.8-185.6-166.4-243.2l-211.2-140.8v160h-249.6c-70.4 0-140.8 32-192 89.6-51.2 51.2-76.8 128-70.4 204.8 12.8 134.4 134.4 236.8 275.2 236.8h352c147.2 0 262.4-121.6 262.4-262.4 6.4-12.8 6.4-25.6 0-44.8z" />
<glyph unicode="&#xe95d;" glyph-name="computer" d="M1024 128v704h-960v-704h448v-64h-192v-64h448v64h-192v64h448zM128 192v64h832v-64h-832z" />
<glyph unicode="&#xe95e;" glyph-name="computer-l" d="M1024 128v704h-960v-704h448v-64h-192v-64h448v64h-192v64h448zM128 768h832v-448h-832v448zM128 192v64h832v-64h-832z" />
<glyph unicode="&#xe95f;" glyph-name="configuration" d="M384 896l-256-256h256zM576 390.4v57.6h-51.2l-19.2 19.2-25.6 19.2-38.4-38.4h-57.6v-57.6l-38.4-38.4 38.4-38.4v-57.6h57.6l38.4-38.4 19.2 19.2 25.6 19.2h51.2v57.6l38.4 38.4-38.4 38.4zM480 320c-12.8 0-32 12.8-32 32s19.2 32 32 32 32-12.8 32-32c0-19.2-12.8-32-32-32zM448 896v-320h-320v-576h704v896h-384zM640 288v-96h-89.6l-64-64-64 64h-102.4v96l-64 64 64 64v96h96l64 64 64-64h96v-96l64-64-64-64z" />
<glyph unicode="&#xe960;" glyph-name="configuration-l" d="M448 896l-256-256v-640h704v896h-448zM448 806.4v-166.4h-166.4l166.4 166.4zM832 64h-576v512h256v256h320v-768zM384 512v-96l-64-64 64-64v-96h96l64-64 64 64h96v96l64 64-64 64v96h-96l-64 64-64-64h-96zM524.8 467.2l19.2 19.2 38.4-38.4h57.6v-57.6l38.4-38.4-38.4-38.4v-57.6h-57.6l-38.4-38.4-38.4 38.4h-57.6v57.6l-38.4 38.4 38.4 38.4v57.6h57.6l19.2 19.2zM576 352c0-17.673-14.327-32-32-32s-32 14.327-32 32c0 17.673 14.327 32 32 32s32-14.327 32-32z" />
<glyph unicode="&#xe961;" glyph-name="control" d="M960 576v192h-384v-64h-256v64h-192v-192h192v64h64v-512h192v-64h384v192h-384v-64h-128v192h128v-64h384v192h-384v-64h-128v192h128v-64h384zM640 704h256v-64h-256v64zM640 192h256v-64h-256v64zM640 448h256v-64h-256v64z" />
<glyph unicode="&#xe962;" glyph-name="control-rank" d="M896 384v192h-320v64h64v192h-192v-192h64v-64h-320v-192h-64v-320h192v320h-64v128h256v-128h-64v-320h192v320h-64v128h256v-128h-64v-320h192v320h-64zM256 128h-64v192h64v-192zM576 128h-64v192h64v-192zM896 128h-64v192h64v-192z" />
<glyph unicode="&#xe963;" glyph-name="credit-card" d="M64 832v-704h896v704h-896zM896 512h-768v128h768v-128z" />
<glyph unicode="&#xe964;" glyph-name="credit-card-l" d="M64 832v-704h896v704h-896zM896 192h-768v320h768v-320zM896 640h-768v128h768v-128z" />
<glyph unicode="&#xe965;" glyph-name="crown" d="M128 192h768v-128h-768v128zM512 768l-192-256-192 128v-384h768v384l-192-128zM128 768h64v-64h-64v64zM832 768h64v-64h-64v64zM480 896h64v-64h-64v64z" />
<glyph unicode="&#xe966;" glyph-name="crown-l" d="M512 768l-192-256-192 128v-576h768v576l-192-128-192 256zM832 128h-640v64h640v-64zM832 518.4v-262.4h-640v262.4l89.6-64 51.2-32 38.4 51.2 140.8 185.6 140.8-185.6 38.4-51.2 51.2 32 89.6 64zM128 768h64v-64h-64v64zM832 768h64v-64h-64v64zM480 896h64v-64h-64v64z" />
<glyph unicode="&#xe967;" glyph-name="css3" d="M1024 902.4l-153.6-774.4-467.2-153.6-403.2 153.6 38.4 204.8h172.8l-19.2-83.2 243.2-96 281.6 96 44.8 198.4h-697.6l32 172.8h697.6l19.2 108.8h-697.6l32 172.8h876.8z" />
<glyph unicode="&#xe968;" glyph-name="cup" d="M0 128h832v-64h-832v64zM864 704h-96v64h-704v-512c0-38.4 25.6-64 64-64h576c38.4 0 64 25.6 64 64v128h96c89.6 0 160 70.4 160 160s-70.4 160-160 160zM192 384h-64v320h64v-320zM864 448h-96v192h96c51.2 0 96-44.8 96-96s-44.8-96-96-96z" />
<glyph unicode="&#xe969;" glyph-name="cup-l" d="M864 704h-96v64h-704v-512c0-38.4 25.6-64 64-64h576c38.4 0 64 25.6 64 64v128h96c89.6 0 160 70.4 160 160s-70.4 160-160 160zM704 256h-576v448h576v-448zM864 448h-96v192h96c51.2 0 96-44.8 96-96s-44.8-96-96-96zM0 128h832v-64h-832v64z" />
<glyph unicode="&#xe96a;" glyph-name="dashboard" d="M512 832c-249.6 0-448-198.4-448-448 0-70.4 12.8-134.4 44.8-192h806.4c25.6 57.6 44.8 121.6 44.8 192 0 249.6-198.4 448-448 448zM768 352v64h64v-64h-64zM716.8 544l-44.8 44.8 44.8 44.8 44.8-44.8-44.8-44.8zM256 416v-64h-64v64h64zM307.2 544l-44.8 44.8 44.8 44.8 44.8-44.8-44.8-44.8zM480 640v64h64v-64h-64zM448 256l64 320 64-320h-128z" />
<glyph unicode="&#xe96b;" glyph-name="dashboard-l" d="M480 704h64v-64h-64v64zM768 416h64v-64h-64v64zM192 416h64v-64h-64v64zM260.964 588.8l45.254 45.254 45.254-45.254-45.254-45.254-45.254 45.254zM671.533 589.775l45.254 45.254 45.254-45.254-45.254-45.254-45.254 45.254zM512 832c-249.6 0-448-198.4-448-448 0-70.4 12.8-134.4 44.8-192h806.4c25.6 57.6 44.8 121.6 44.8 192 0 249.6-198.4 448-448 448zM876.8 256h-300.8l-64 320-64-320h-300.8c-12.8 38.4-19.2 83.2-19.2 128 0 211.2 172.8 384 384 384s384-172.8 384-384c0-44.8-6.4-89.6-19.2-128z" />
<glyph unicode="&#xe96c;" glyph-name="diamond" d="M352 576h320l-160 211.2zM512 179.2l172.8 332.8h-345.6zM51.2 512l416-416 6.4 12.8-204.8 403.2zM275.2 576l166.4 224h-166.4l-224-224zM748.8 576h224l-224 224h-166.4zM755.2 512l-204.8-403.2 6.4-12.8 416 416z" />
<glyph unicode="&#xe96d;" glyph-name="diamond-l" d="M748.8 800h-473.6l-256-256 492.8-492.8 492.8 492.8-256 256zM268.8 512l128-256-256 256h128zM512 512h172.8l-172.8-345.6-172.8 345.6h172.8zM352 576l121.6 160h76.8l121.6-160h-320zM755.2 512h128l-256-256 128 256zM883.2 576h-128l-121.6 160h89.6l160-160zM300.8 736h89.6l-115.2-160h-128l153.6 160z" />
<glyph unicode="&#xe96e;" glyph-name="doc-edit" d="M384 896l-256-256h256zM448 896v-320h-320v-576h704v896h-384zM416 128h-160v160l294.4 288 153.6-153.6-288-294.4zM313.6 262.4v-76.8h76.8l198.4 192-83.2 76.8z" />
<glyph unicode="&#xe96f;" glyph-name="doc-edit-l" d="M384 896l-256-256v-640h704v896h-448zM384 806.4v-166.4h-166.4l166.4 166.4zM768 64h-576v512h256v256h320v-768zM256 128h160l288 294.4-153.6 153.6-294.4-288v-160zM313.6 262.4l198.4 192 76.8-76.8-198.4-198.4h-76.8v83.2z" />
<glyph unicode="&#xe970;" glyph-name="doc-file" d="M448 896l-256-256h256zM512 896v-320h-320v-576h704v896h-384zM320 448v64h448v-64h-448zM768 384v-64h-448v64h448zM320 256h448v-64h-448v64z" />
<glyph unicode="&#xe971;" glyph-name="doc-file-l" d="M448 896l-256-256v-640h704v896h-448zM448 806.4v-166.4h-166.4l166.4 166.4zM832 64h-576v512h256v256h320v-768zM320 512h448v-64h-448v64zM320 384h448v-64h-448v64zM320 256h448v-64h-448v64z" />
<glyph unicode="&#xe972;" glyph-name="download-l" d="M832 512v-320h-640v320h-64v-384h768v384zM729.6 486.4l-51.2 51.2-134.4-140.8v435.2h-64v-435.2l-134.4 140.8-51.2-51.2 217.6-211.2z" />
<glyph unicode="&#xe973;" glyph-name="dribbble" d="M512 960c-281.6 0-512-230.4-512-512s230.4-512 512-512 512 230.4 512 512-230.4 512-512 512zM966.4 441.6c-128 25.6-236.8 25.6-326.4 6.4-19.2 38.4-38.4 76.8-57.6 115.2 102.4 38.4 198.4 96 275.2 179.2 64-76.8 108.8-179.2 108.8-294.4 0 0 0-6.4 0-6.4zM812.8 780.8c-70.4-76.8-160-128-256-166.4-44.8 89.6-102.4 179.2-172.8 268.8 44.8 12.8 83.2 19.2 128 19.2 115.2 0 224-44.8 300.8-121.6zM326.4 857.6c70.4-83.2 121.6-172.8 172.8-262.4-179.2-57.6-358.4-64-428.8-64 25.6 147.2 128 268.8 256 326.4zM57.6 448c0 6.4 0 19.2 0 25.6 6.4 0 6.4 0 12.8 0 76.8 0 262.4 6.4 448 64 25.6-32 38.4-70.4 57.6-108.8-217.6-64-345.6-224-390.4-288-76.8 83.2-128 185.6-128 307.2zM224 96c38.4 51.2 153.6 211.2 371.2 275.2 57.6-153.6 83.2-288 96-339.2-57.6-25.6-115.2-38.4-179.2-38.4-108.8 0-204.8 38.4-288 102.4zM748.8 64c-12.8 64-38.4 185.6-89.6 326.4 89.6 19.2 185.6 19.2 300.8-6.4-25.6-140.8-102.4-256-211.2-320z" />
<glyph unicode="&#xe974;" glyph-name="dropbox" d="M0 384l300.8-198.4 211.2 179.2-300.8 185.6-211.2-166.4zM300.8 915.2l-300.8-198.4 211.2-166.4 300.8 185.6-211.2 179.2zM1024 716.8l-300.8 198.4-211.2-179.2 300.8-185.6 211.2 166.4zM512 364.8l211.2-172.8 300.8 192-211.2 166.4-300.8-185.6zM512 326.4l-211.2-172.8-89.6 57.6v-64l300.8-185.6 300.8 179.2v64l-89.6-57.6-211.2 179.2z" />
<glyph unicode="&#xe975;" glyph-name="earth" d="M646.4 19.2c0 0 0 0 0 0 19.2 6.4 38.4 12.8 57.6 25.6 0 0 6.4 0 6.4 0 147.2 76.8 249.6 230.4 249.6 403.2 0 102.4-32 198.4-96 275.2 0 0 0 0 0 0-25.6 32-51.2 57.6-76.8 76.8 0 0 0 0-6.4 0-12.8 12.8-25.6 25.6-38.4 32 0 0-6.4 0-6.4 6.4-32 19.2-64 32-96 44.8-6.4 0-6.4 0-12.8 6.4-19.2-6.4-32 0-44.8 0-6.4 0-12.8 0-12.8 0-19.2 6.4-38.4 6.4-57.6 6.4-44.8 0-89.6-6.4-134.4-19.2v0 0c-19.2-6.4-44.8-19.2-64-25.6 0 0-6.4 0-6.4-6.4-19.2-6.4-38.4-19.2-51.2-32 0 0-6.4-6.4-6.4-6.4-19.2-12.8-32-25.6-51.2-38.4 0 0 0 0 0 0-12.8-12.8-32-32-44.8-51.2 0 0-6.4-6.4-6.4-12.8-12.8-12.8-19.2-25.6-32-44.8 0 0 0-6.4 0-6.4-12.8-19.2-19.2-38.4-25.6-57.6 0-6.4 0-6.4-6.4-12.8 0-12.8-6.4-32-12.8-57.6 0-6.4 0-6.4 0-12.8-6.4-19.2-6.4-38.4-6.4-64 0-243.2 192-441.6 435.2-448v0c6.4 0 6.4 0 12.8 0 19.2 0 44.8 0 64 6.4 6.4 0 6.4 0 12.8 0 19.2 6.4 38.4 6.4 57.6 12.8zM512 64c-192 0-345.6 140.8-377.6 320h57.6l64 128h64l128 256-32 51.2c32 6.4 64 12.8 96 12.8v-96l-64-140.8 64-147.2h128v76.8l204.8 115.2c32-57.6 51.2-121.6 51.2-192 0-64-12.8-121.6-44.8-179.2l-147.2 51.2-64 64h-128l64-192-51.2-128c-6.4 0-6.4 0-12.8 0z" />
<glyph unicode="&#xe976;" glyph-name="earth-l" d="M646.4 19.2c0 0 0 0 0 0 19.2 6.4 38.4 12.8 57.6 25.6 0 0 6.4 0 6.4 0 147.2 76.8 249.6 230.4 249.6 403.2 0 102.4-32 198.4-96 275.2 0 0 0 0 0 0-25.6 32-51.2 57.6-76.8 76.8 0 0 0 0-6.4 0-12.8 12.8-25.6 25.6-38.4 32 0 0-6.4 0-6.4 6.4-32 19.2-64 32-96 44.8-6.4 0-6.4 0-12.8 6.4-19.2-6.4-32 0-44.8 0-6.4 0-12.8 0-12.8 0-19.2 6.4-38.4 6.4-57.6 6.4-44.8 0-89.6-6.4-134.4-19.2v0 0c-19.2-6.4-44.8-19.2-64-25.6 0 0-6.4 0-6.4-6.4-19.2-6.4-38.4-19.2-51.2-32 0 0-6.4-6.4-6.4-6.4-19.2-12.8-32-25.6-51.2-38.4 0 0 0 0 0 0-12.8-12.8-32-32-44.8-51.2 0 0-6.4-6.4-6.4-12.8-12.8-12.8-19.2-25.6-32-44.8 0 0 0-6.4 0-6.4-12.8-19.2-19.2-38.4-25.6-57.6 0-6.4 0-6.4-6.4-12.8 0-12.8-6.4-32-12.8-57.6 0-6.4 0-6.4 0-12.8-6.4-19.2-6.4-38.4-6.4-64 0-243.2 192-441.6 435.2-448v0c6.4 0 6.4 0 12.8 0 19.2 0 44.8 0 64 6.4 6.4 0 6.4 0 12.8 0 19.2 6.4 38.4 6.4 57.6 12.8zM627.2 230.4l-64 89.6h44.8l64-64h32v-140.8c0 0 0 0 0 0-12.8-6.4-32-19.2-44.8-25.6 0 0-6.4 0-6.4 0-12.8-6.4-32-12.8-51.2-12.8 0 0 0 0 0 0l51.2 128-25.6 25.6zM582.4 499.2v0l-25.6 6.4-38.4 89.6 51.2 115.2 6.4 12.8v102.4c0 0 0 0 0 0 19.2-6.4 44.8-6.4 64-19.2 0 0 0 0 0 0 64-25.6 121.6-64 166.4-115.2l-198.4-108.8-51.2-32 25.6-51.2zM371.2 761.6l-89.6-185.6h-64l-64-128h-25.6c0 19.2 0 32 6.4 51.2 0 6.4 0 12.8 0 12.8 0 12.8 6.4 25.6 6.4 38.4 0 6.4 0 6.4 6.4 12.8 0 12.8 6.4 25.6 12.8 38.4 0 6.4 6.4 12.8 6.4 19.2 6.4 6.4 12.8 12.8 12.8 19.2 6.4 12.8 12.8 25.6 25.6 38.4 6.4 6.4 6.4 12.8 12.8 12.8 6.4 6.4 12.8 12.8 19.2 19.2s6.4 6.4 12.8 12.8 12.8 12.8 19.2 19.2c6.4 6.4 19.2 19.2 32 25.6 0 0 6.4 6.4 12.8 6.4 6.4 6.4 19.2 12.8 32 12.8 0 0 6.4 0 6.4 6.4l19.2-32zM512 64c-192 0-345.6 140.8-377.6 320h57.6l64 128h64l128 256-32 51.2c32 6.4 64 12.8 96 12.8v-96l-64-140.8 64-140.8 192-70.4-64 140.8 204.8 115.2c32-57.6 51.2-121.6 51.2-192 0-115.2-51.2-217.6-128-288v160h-64l-64 64h-192l128-192-51.2-128c-6.4 0-6.4 0-12.8 0z" />
<glyph unicode="&#xe977;" glyph-name="eye" d="M512 531.2c-44.8 0-83.2-38.4-83.2-83.2s38.4-83.2 83.2-83.2 83.2 38.4 83.2 83.2-38.4 83.2-83.2 83.2zM512 812.8c-236.8 0-435.2-153.6-512-364.8 76.8-211.2 275.2-364.8 512-364.8s435.2 153.6 512 364.8c-76.8 211.2-275.2 364.8-512 364.8zM512 300.8c-83.2 0-147.2 64-147.2 147.2s64 147.2 147.2 147.2 147.2-64 147.2-147.2-64-147.2-147.2-147.2z" />
<glyph unicode="&#xe978;" glyph-name="eye-l" d="M512 595.2c-83.2 0-147.2-64-147.2-147.2s64-147.2 147.2-147.2 147.2 64 147.2 147.2c0 83.2-64 147.2-147.2 147.2zM512 364.8c-44.8 0-83.2 38.4-83.2 83.2s38.4 83.2 83.2 83.2 83.2-38.4 83.2-83.2c0-44.8-38.4-83.2-83.2-83.2zM512 812.8c-236.8 0-435.2-153.6-512-364.8 76.8-211.2 275.2-364.8 512-364.8s435.2 153.6 512 364.8c-76.8 211.2-275.2 364.8-512 364.8zM512 147.2c-192 0-371.2 121.6-441.6 300.8 70.4 179.2 249.6 300.8 441.6 300.8s371.2-121.6 441.6-300.8c-70.4-179.2-249.6-300.8-441.6-300.8z" />
<glyph unicode="&#xe979;" glyph-name="face" d="M512 896c-249.6 0-448-198.4-448-448s198.4-448 448-448 448 198.4 448 448c0 249.6-198.4 448-448 448zM256 512c0 38.4 25.6 64 64 64s64-25.6 64-64c0-38.4-25.6-64-64-64s-64 25.6-64 64zM512 179.2c-89.6 0-172.8 51.2-217.6 128l57.6 32c32-64 89.6-96 160-96s128 38.4 166.4 96l57.6-32c-51.2-83.2-134.4-128-224-128zM704 448c-38.4 0-64 25.6-64 64s25.6 64 64 64 64-25.6 64-64c0-38.4-25.6-64-64-64z" />
<glyph unicode="&#xe97a;" glyph-name="facebook" d="M748.8 627.2l-19.2-179.2h-140.8v-512h-211.2v512h-102.4v179.2h102.4v102.4c0 147.2 64 230.4 230.4 230.4h140.8v-179.2h-89.6c-64 0-70.4-25.6-70.4-70.4v-89.6l160 6.4z" />
<glyph unicode="&#xe97b;" glyph-name="face-l" d="M512 896c-249.6 0-448-198.4-448-448s198.4-448 448-448c249.6 0 448 198.4 448 448s-198.4 448-448 448zM512 64c-211.2 0-384 172.8-384 384s172.8 384 384 384c211.2 0 384-172.8 384-384s-172.8-384-384-384zM512 243.2c-70.4 0-128 38.4-166.4 96l-57.6-32c44.8-76.8 128-128 217.6-128s172.8 51.2 217.6 128l-57.6 32c-25.6-64-83.2-96-153.6-96zM384 512c0 38.4-25.6 64-64 64s-64-25.6-64-64 25.6-64 64-64c38.4 0 64 25.6 64 64zM704 576c-38.4 0-64-25.6-64-64s25.6-64 64-64c38.4 0 64 25.6 64 64s-25.6 64-64 64z" />
<glyph unicode="&#xe97c;" glyph-name="file" d="M448 896l-256-256h256zM512 896v-320h-320v-576h704v896z" />
<glyph unicode="&#xe97d;" glyph-name="file-l" d="M768 896h-345.6l-294.4-294.4v-601.6h704v896h-64zM448 832v-256h-256l256 256zM768 64h-576v448h320v320h256v-768z" />
<glyph unicode="&#xe97e;" glyph-name="film" d="M128 896v-960h768v960h-768zM448 320v256l192-128-192-128zM768 640v-64h-64v64h64zM704 704v64h64v-64h-64zM768 512v-64h-64v64h64zM768 384v-64h-64v64h64zM768 256v-64h-64v64h64zM768 128v-64h-64v64h64zM320 640v-64h-64v64h64zM256 704v64h64v-64h-64zM320 512v-64h-64v64h64zM320 384v-64h-64v64h64zM320 256v-64h-64v64h64zM320 128v-64h-64v64h64z" />
<glyph unicode="&#xe97f;" glyph-name="film-l" d="M416 633.6v-377.6l281.6 192-281.6 185.6zM480 377.6v140.8l102.4-70.4-102.4-70.4zM896 896h-768v-960h768v960zM192 0v832h640v-832h-640zM320 768h-64v-64h64v64zM320 640h-64v-64h64v64zM320 512h-64v-64h64v64zM320 384h-64v-64h64v64zM320 256h-64v-64h64v64zM320 128h-64v-64h64v64zM768 768h-64v-64h64v64zM768 640h-64v-64h64v64zM768 512h-64v-64h64v64zM768 384h-64v-64h64v64zM768 256h-64v-64h64v64zM768 128h-64v-64h64v64z" />
<glyph unicode="&#xe980;" glyph-name="fire-l" d="M212.674 529.65c27.195 64.43 67.412 95.993 67.412 95.993-3.805-31.408-5.873-73.838-1.022-104.063 0 0 4.99-43.647 23.779-73.58s34.894-27.164 34.894-27.164c-17.718-35.864-81.599 31.603-81.724-20.988-24.794 31.659-39.006 78.058-43.34 129.801zM495.080 778.46c-118.818-106.792-135.216-187.042-104.033-273.62 0.020-0.055 13.764-35.504 16.63-45.672 10.449-37.068 4.849-73.743-35.989-95.064-9.143-4.774-19.305-7.267-29.62-7.267-36.54 0-65.083 16.233-86.055 43.012-0.005-1.913-0.003-3.853 0.005-5.82 0.014-3.61 0.014-3.61 0.019-7.177 0-154.56 107.313-267.024 249.268-267.024 145.488 0 262.589 115.86 262.589 267.024 0 96.188-37.962 156.141-125.499 226.844-10.803 8.726-7.97 6.523-41.668 32.564-50.48 39.009-84.155 84.797-103.826 133.832l-1.821-1.631zM342.068 420.836c8.968 4.682 6.385 15.753 0 32.844 0 0-57.59 97.463-9.867 209.646 26.491 65.826 86.11 143.829 206.883 232.674 0-49.647 15.033-132.841 100.776-199.1s192.034-143.786 192.034-310.049c0-190.612-149.898-331.024-326.589-331.024s-313.268 140.412-313.268 331.024c0 29.321-3.167 101.59 30.568 163.767 2.674 4.928 73.801-131.796 119.463-129.782z" />
<glyph unicode="&#xe981;" glyph-name="firewall" d="M448 384h192v-128h-192v128zM192 384h192v-128h-192v128zM448 192h-256v-128h320v128zM640 192h-64v-128h320v128h-192zM704 384h192v-128h-192v128zM320 537.6c0-32 6.4-64 19.2-89.6h409.6c12.8 25.6 19.2 57.6 19.2 89.6 0 115.2-76.8 172.8-134.4 217.6s-70.4 108.8-70.4 140.8c-83.2-64-128-115.2-147.2-160-32-83.2 6.4-147.2 6.4-147.2 6.4-12.8 6.4-19.2 0-25.6-6.4 0-12.8 6.4-19.2 6.4 0 0-6.4 6.4-6.4 12.8-12.8 19.2-12.8 51.2-12.8 51.2-6.4 19.2-6.4 51.2 0 70.4 0 0-32-19.2-51.2-64 0 0 0 0 0 0-12.8-38.4-12.8-83.2-12.8-102.4z" />
<glyph unicode="&#xe982;" glyph-name="firewall-l" d="M748.8 448c12.8 25.6 19.2 57.6 19.2 89.6 0 115.2-76.8 172.8-134.4 217.6s-70.4 108.8-70.4 140.8c-83.2-64-128-115.2-147.2-160-32-83.2 6.4-147.2 6.4-147.2 6.4-12.8 6.4-19.2 0-25.6 0 0 0 0 0 0-6.4 0-12.8 6.4-19.2 6.4 0 0-6.4 6.4-6.4 12.8-12.8 19.2-12.8 51.2-12.8 51.2-6.4 19.2-6.4 51.2 0 70.4 0 0-32-19.2-51.2-64 0 0 0 0 0 0-12.8-38.4-12.8-83.2-12.8-102.4 0-32 6.4-64 19.2-89.6h-211.2v-448h832v448h-211.2zM640 256h-192v128h192v-128zM384 512c12.8-6.4 25.6-6.4 38.4-6.4v0 0h12.8l12.8 6.4c19.2 0 64 32 38.4 96v12.8c0 0-25.6 44.8 0 89.6 6.4 25.6 25.6 44.8 51.2 70.4 12.8-25.6 38.4-51.2 64-76.8v0c51.2-44.8 102.4-83.2 102.4-166.4 0-32-12.8-64-25.6-89.6h-268.8c-12.8 19.2-19.2 38.4-25.6 64zM192 384h192v-128h-192v128zM192 64v128h320v-128h-320zM896 64h-320v128h320v-128zM704 256v128h192v-128h-192z" />
<glyph unicode="&#xe983;" glyph-name="folder" d="M512 704l-128 128h-320v-768h896v640z" />
<glyph unicode="&#xe984;" glyph-name="folder-l" d="M358.4 768l128-128h409.6v-512h-768v640h230.4zM384 832h-320v-768h896v640h-448l-128 128z" />
<glyph unicode="&#xe985;" glyph-name="forum" d="M64 896v-832h512l256-128v128h128v832h-896zM256 256c0 140.8 115.2 256 256 256-70.4 0-128 57.6-128 128s57.6 128 128 128 128-57.6 128-128c0-70.4-57.6-128-128-128 140.8 0 256-115.2 256-256h-512zM512 448c-83.2 0-153.6-51.2-179.2-128h364.8c-32 76.8-102.4 128-185.6 128zM576 640c0-35.346-28.654-64-64-64s-64 28.654-64 64c0 35.346 28.654 64 64 64s64-28.654 64-64z" />
<glyph unicode="&#xe986;" glyph-name="forum-l" d="M64 896v-832h512l256-128v128h128v832h-896zM896 128h-128v-89.6l-179.2 89.6h-460.8v704h768v-704zM640 640c0 70.4-57.6 128-128 128s-128-57.6-128-128c0-70.4 57.6-128 128-128s128 57.6 128 128zM512 576c-38.4 0-64 25.6-64 64s25.6 64 64 64 64-25.6 64-64-25.6-64-64-64zM512 512c-140.8 0-256-115.2-256-256h512c0 140.8-115.2 256-256 256zM512 448c83.2 0 153.6-51.2 179.2-128h-358.4c25.6 76.8 96 128 179.2 128z" />
<glyph unicode="&#xe987;" glyph-name="game" d="M953.6 441.6l-38.4 160c-12.8 57.6-70.4 102.4-134.4 102.4h-550.4c-64 0-115.2-44.8-134.4-102.4l-38.4-160c-32-128 64-249.6 198.4-249.6 76.8 0 147.2 44.8 179.2 108.8l6.4 19.2h128l6.4-19.2c32-70.4 102.4-108.8 179.2-108.8 134.4 0 230.4 121.6 198.4 249.6zM320 448v-64h-64v64h-64v64h64v64h64v-64h64v-64h-64zM672 512c19.2 0 32-12.8 32-32s-12.8-32-32-32-32 12.8-32 32 12.8 32 32 32zM736 448c19.2 0 32-12.8 32-32s-12.8-32-32-32-32 12.8-32 32 12.8 32 32 32zM736 512c-19.2 0-32 12.8-32 32s12.8 32 32 32 32-12.8 32-32-12.8-32-32-32zM800 512c19.2 0 32-12.8 32-32s-12.8-32-32-32-32 12.8-32 32 12.8 32 32 32z" />
<glyph unicode="&#xe988;" glyph-name="game-l" d="M320 576h-64v-64h-64v-64h64v-64h64v64h64v64h-64zM768 544c0-17.673-14.327-32-32-32s-32 14.327-32 32c0 17.673 14.327 32 32 32s32-14.327 32-32zM768 416c0-17.673-14.327-32-32-32s-32 14.327-32 32c0 17.673 14.327 32 32 32s32-14.327 32-32zM832 480c0-17.673-14.327-32-32-32s-32 14.327-32 32c0 17.673 14.327 32 32 32s32-14.327 32-32zM704 480c0-17.673-14.327-32-32-32s-32 14.327-32 32c0 17.673 14.327 32 32 32s32-14.327 32-32zM953.6 441.6l-38.4 160c-12.8 64-70.4 102.4-134.4 102.4h-550.4c-64 0-115.2-44.8-134.4-102.4l-38.4-160c-32-128 64-249.6 198.4-249.6 76.8 0 147.2 44.8 179.2 108.8l6.4 19.2h128l6.4-19.2c32-70.4 102.4-108.8 179.2-108.8 134.4 0 230.4 121.6 198.4 249.6zM864 307.2c-25.6-32-64-51.2-108.8-51.2-51.2 0-102.4 32-121.6 76.8l-25.6 51.2h-204.8l-25.6-51.2c-25.6-44.8-70.4-76.8-128-76.8-44.8 0-83.2 19.2-108.8 51.2s-32 76.8-25.6 121.6l38.4 160c12.8 25.6 38.4 51.2 76.8 51.2h556.8c32 0 64-25.6 70.4-57.6l38.4-160c6.4-38.4 0-76.8-32-115.2z" />
<glyph unicode="&#xe989;" glyph-name="gift" d="M512 332.8h320v-320h-320v320zM128 332.8h320v-320h-320v320zM448 396.8v256h64v-256h384v320h-140.8c25.6 51.2 6.4 108.8-44.8 128-12.8 6.4-32 12.8-44.8 12.8-25.6 0-44.8-6.4-64-25.6l-121.6-115.2-121.6 115.2c-19.2 19.2-44.8 25.6-64 25.6-12.8 0-32-6.4-44.8-12.8-51.2-25.6-70.4-83.2-44.8-128h-140.8v-320h384zM646.4 780.8c6.4 6.4 12.8 6.4 25.6 6.4 6.4 0 12.8 0 12.8-6.4 19.2-6.4 25.6-32 12.8-44.8v-6.4c-6.4-12.8-19.2-19.2-32-19.2h-89.6l70.4 70.4zM275.2 787.2c6.4 0 12.8 6.4 12.8 6.4 6.4 0 19.2 0 25.6-6.4l70.4-64h-89.6c-12.8 0-25.6 6.4-32 19.2v6.4c-12.8 12.8-6.4 32 12.8 38.4z" />
<glyph unicode="&#xe98a;" glyph-name="gift-l" d="M896 710.4h-140.8c25.6 51.2 6.4 108.8-44.8 128-12.8 6.4-32 12.8-44.8 12.8-25.6 0-44.8-6.4-64-25.6l-121.6-115.2-121.6 115.2c-19.2 19.2-44.8 25.6-64 25.6-12.8 0-32-6.4-44.8-12.8-51.2-25.6-70.4-83.2-44.8-128h-140.8v-320h64v-384h704v384h64v320zM646.4 774.4c6.4 6.4 12.8 6.4 25.6 6.4 6.4 0 12.8 0 12.8-6.4 6.4-6.4 12.8-12.8 19.2-19.2 0-6.4 0-19.2 0-25.6v-6.4c-6.4-12.8-19.2-19.2-32-19.2h-96l70.4 70.4zM256 761.6c0 6.4 6.4 12.8 19.2 19.2 6.4 0 12.8 6.4 12.8 6.4 6.4 0 19.2 0 25.6-6.4l70.4-64h-89.6c-12.8 0-25.6 6.4-32 19.2v6.4c-6.4 0-6.4 12.8-6.4 19.2zM128 646.4h320v-192h-320v192zM192 70.4v320h192v-320h-192zM448 70.4v320h64v-320h-64zM768 70.4h-192v320h192v-320zM832 454.4h-320v192h320v-192z" />
<glyph unicode="&#xe98b;" glyph-name="github" d="M915.2 633.6c6.4 19.2 32 96-6.4 198.4 0 0-64 19.2-204.8-76.8-64 12.8-128 19.2-192 19.2s-128-6.4-185.6-19.2c-147.2 96-211.2 76.8-211.2 76.8-38.4-102.4-12.8-179.2-6.4-198.4-44.8-51.2-76.8-121.6-76.8-204.8 0-307.2 198.4-377.6 480-377.6s480 70.4 480 377.6c0 83.2-32 153.6-76.8 204.8zM512 108.8c-198.4 0-358.4 6.4-358.4 198.4 0 44.8 25.6 89.6 64 121.6 64 57.6 172.8 25.6 300.8 25.6 121.6 0 230.4 32 294.4-25.6 38.4-38.4 64-76.8 64-121.6-6.4-185.6-166.4-198.4-364.8-198.4zM358.4 409.6c-38.4 0-70.4-51.2-70.4-108.8s32-108.8 70.4-108.8 70.4 51.2 70.4 108.8-25.6 108.8-70.4 108.8zM665.6 409.6c-38.4 0-70.4-44.8-70.4-108.8s32-108.8 70.4-108.8c38.4 0 70.4 51.2 70.4 108.8s-32 108.8-70.4 108.8z" />
<glyph unicode="&#xe98c;" glyph-name="github-logo" d="M512 915.2c-262.4 0-480-211.2-480-480 0-211.2 134.4-390.4 326.4-454.4 25.6-6.4 32 12.8 32 25.6s0 51.2 0 89.6c-121.6-19.2-153.6 32-160 57.6-6.4 12.8-32 57.6-51.2 70.4-19.2 6.4-38.4 32 0 32s64-32 76.8-51.2c44.8-70.4 115.2-51.2 140.8-38.4 6.4 32 19.2 51.2 32 64-108.8 6.4-224 44.8-224 230.4 0 51.2 19.2 96 51.2 128-6.4 12.8-19.2 64 6.4 128 0 0 38.4 12.8 134.4-51.2 32 12.8 76.8 19.2 115.2 19.2s83.2-6.4 121.6-19.2c89.6 64 134.4 51.2 134.4 51.2 25.6-64 6.4-115.2 6.4-128 32-32 51.2-76.8 51.2-128 0-185.6-115.2-224-217.6-236.8 19.2-12.8 32-44.8 32-89.6 0-64 0-115.2 0-134.4 0-12.8 6.4-25.6 32-25.6 198.4 64 326.4 249.6 326.4 454.4-6.4 275.2-224 486.4-486.4 486.4z" />
<glyph unicode="&#xe98d;" glyph-name="Google" d="M889.6 588.8h-377.6v-153.6h217.6c-32-89.6-115.2-153.6-217.6-153.6-128 0-230.4 102.4-230.4 230.4s102.4 230.4 230.4 230.4c57.6 0 115.2-19.2 153.6-57.6l108.8 108.8c-70.4 64-160 102.4-262.4 102.4-211.2 0-384-172.8-384-384s172.8-384 384-384 384 172.8 384 384c0 25.6 0 51.2-6.4 76.8z" />
<glyph unicode="&#xe98e;" glyph-name="greatwall" d="M832 704v-128h-64v128h-128v-128h-64v128h-128v-128h-320v-448h512v128c0 38.4 25.6 64 64 64s64-25.6 64-64v-128h192v576h-128zM192 512h128v-64h-128v64zM192 384h64v-64h-64v64zM320 192h-128v64h128v-64zM448 192h-64v64h64v-64zM448 320h-128v64h128v-64zM448 448h-64v64h64v-64z" />
<glyph unicode="&#xe98f;" glyph-name="hacker" d="M756.48 896h-512l-128-128 64-512 256-256h32v192h64v-192h32l256 256 64 512-128 128zM308.48 576h128v-64h-128v64zM692.48 576v-64h-128v64h128zM686.080 664.96l-106.88-53.76-28.8 57.6 148.48 74.24 80-80-45.44-45.44-47.36 47.36zM302.080 743.040l148.48-74.24-28.16-57.6-107.52 53.76-47.36-47.36-45.44 44.8 80 80.64zM331.52 406.4l54.4-54.4h37.76l77.44 77.44 76.8-77.44h37.76l54.4 54.4 45.44-45.44-73.6-73.6h-90.24l-51.2 51.2-50.56-50.56h-90.24l-73.6 73.6 45.44 44.8z" />
<glyph unicode="&#xe990;" glyph-name="hacker-l" d="M768 896h-512l-128-128 64-512 256-256h128l256 256 64 512-128 128zM774.4 288l-224-224h-6.4v192h-64v-192h-6.4l-224 224-51.2 454.4 83.2 89.6h460.8l89.6-89.6-57.6-454.4zM320 576h128v-64h-128v64zM576 576h128v-64h-128v64zM627.2 352h-38.4l-76.8 76.8-76.8-76.8h-38.4l-51.2 57.6-51.2-51.2 76.8-70.4h89.6l51.2 51.2 51.2-51.2h89.6l76.8 70.4-51.2 51.2zM435.2 614.4l25.6 51.2-147.2 76.8-83.2-76.8 51.2-51.2 44.8 51.2zM563.2 665.6l25.6-51.2 108.8 51.2 44.8-51.2 51.2 51.2-83.2 76.8z" />
<glyph unicode="&#xe991;" glyph-name="hammer" d="M448 576v-64h-128v192c-108.8 0-192-83.2-192-192v-128h-64v-192h320v192h-64v64h128v-64h576v192h-576zM192 256h-64v64h64v-64z" />
<glyph unicode="&#xe992;" glyph-name="hammer-l" d="M448 576v-64h-128v192c-108.8 0-192-83.2-192-192v-128h-64v-192h320v192h-64v64h128v-64h576v192h-576zM320 256h-192v64h192v-64zM192 384v128c0 44.8 25.6 89.6 64 108.8v-236.8h-64zM960 448h-448v64h448v-64z" />
<glyph unicode="&#xe993;" glyph-name="hand-bevel" d="M476.377 601.996c0 55.734 44.348 102.004 100.427 102.004 55.965 0 100.76-46.152 100.76-102.004v-135.071c20.733-4.511 39.263-15.080 53.555-29.776 2.408 0.163 4.839 0.246 7.29 0.246 29.758 0 56.712-12.248 75.972-32.001l-2.952 0.045c0.988 0 1.972-0.015 2.952-0.045 51.354-1.567 92.261-43.865 92.261-95.495v-40.433l0.156-88.181c0-9.61-0.813-19.253-2.369-28.963-5.090-31.76-15.925-58.729-36.407-99.077-20.541-40.465-24.913-50.602-24.913-53.245v-64h-336.238v64c0-6.86-1.831-2.602-6.331 4.675-6.693 10.823-13.151 20.010-32.353 46.492-1.037 1.43-1.037 1.43-2.078 2.867-12.886 17.791-20.566 28.709-28.028 40.159-10.277 15.769-26.026 40.369-45.835 71.534-13.332 20.977-26.784 42.213-40.205 63.448-8.052 12.74-14.304 22.647-19.171 30.461-26.884 46.584-10.143 105.749 36.209 132.523 34.772 20.062 77.016 16.573 107.299-6.108v215.944zM842.642 268.439v41.46c0 17.418-13.981 31.54-31.214 31.54-7.343 0-14.248-4.301-20.713-12.904-1.099-1.462-2.822-2.322-4.651-2.322-3.214 0-5.819 2.605-5.819 5.819 0 22.847-18.724 41.364-41.837 41.364-11.165 0-21.231-4.321-28.654-11.364-0.622-0.59-1.23-1.249-1.82-1.979-1.182-1.447-2.951-2.286-4.818-2.286-3.436 0-6.221 2.785-6.221 6.221 0 22.847-18.974 41.364-41.983 41.364-10.355 0-19.765-3.753-26.982-9.962 0 0 0 0 0 0-1.577-1.357-3.589-2.103-5.67-2.103-4.801 0-8.694 3.892-8.694 8.694h-0.002v200.016c0 20.991-16.639 38.004-36.76 38.004-20.111 0-36.427-17.023-36.427-38.004v-343.764c0-6.018-2.822-11.688-7.623-15.317-8.459-6.394-20.5-4.719-26.894 3.74v0l-59.385 78.572c-9.018 15.626-29.348 20.767-45.413 11.498-16.066-9.28-21.779-29.471-12.761-45.097 0 0 73.427-116.497 103.4-162.491s79.171-102.727 79.171-129.137h208.238c0 44.585 63.689 114.226 63.689 181.285-0.035 57.783-0.087 86.834-0.156 87.154zM330.039 762.51l-45.255 45.255 158.392 22.627-22.627-158.392-45.255 45.255-135.765-135.765 45.255-45.255-158.392-22.627 22.627 158.392 45.255-45.255 135.765 135.765z" />
<glyph unicode="&#xe994;" glyph-name="hand-button" d="M266.854 411.354v190.632c0 56.044 45.025 102.013 101.235 102.013 56.216 0 101.246-45.965 101.246-102.013v-134.765c21.487-4.335 40.7-15.071 55.419-30.163 2.826 0.222 5.681 0.335 8.562 0.335 29.907 0 57.139-12.204 76.614-31.975l-1.963 0.020c0.656 0 1.31-0.007 1.963-0.020 51.886-1.040 93.939-43.228 93.939-95.498v-39.859l0.16-2.41v-86.362c0-9.625-0.827-19.279-2.409-28.995-5.207-31.98-16.318-59.052-37.337-99.556-20.857-40.191-25.359-50.405-25.359-52.738v-64h-340.892v64c0-8.050-0.827-6.318-4.44-1.316-6.495 8.989-11.566 15.036-32.959 39.755-4.136 4.784-4.136 4.784-8.346 9.697-42.256 49.488-60.264 77.714-60.264 117.911 0.082 2.129 0.058 2.59 0.032 3.080l-0.053 141.508c0 47.581 31.668 87.366 74.854 100.719zM639.868 268.462v41.459c0 17.407-14.292 31.518-31.902 31.518-5.594 0-10.848-1.422-15.416-3.919-2.889-1.58-5.574-4.254-8.059-8.021-0.848-1.288-2.287-2.063-3.83-2.063-2.533 0-4.586 2.053-4.586 4.586v0c0 22.857-19.145 41.373-42.76 41.373-10.35 0-19.84-3.554-27.238-9.469-1.342-1.073-2.633-2.398-3.873-3.973-1.238-1.574-3.129-2.493-5.132-2.493-3.605 0-6.528 2.923-6.528 6.528 0 22.846-19.071 41.363-42.6 41.363-7.861 0-15.224-2.065-21.544-5.666 0 0 0 0 0 0-2.126-1.211-4.531-1.848-6.977-1.848-7.784 0-14.093 6.31-14.093 14.093h0.005v190.059c0 20.991-16.671 38.013-37.246 38.013-20.564 0-37.235-17.023-37.235-38.013v-354.622c0-7.050-7.21-12.767-16.095-12.767-8.895 0-16.106 5.717-16.106 12.767v104.782c-23.561-0.032-42.653-18.601-42.653-41.512l0.053-141.484c0-0.544 0.149-1.045-0.032-3.104 0-47.154 106.009-126.104 106.009-166.048h212.892c0 44.594 65.105 114.222 65.105 181.289-0.028 57.788-0.082 86.846-0.16 87.173zM563.32 488.376c-8.968-15.229-28.583-20.305-43.812-11.337s-20.305 28.583-11.337 43.812c14.759 25.064 22.45 53.607 22.468 82.641 0.027 43.083-16.737 84.463-47.816 115.542-63.755 63.755-167.122 63.755-230.876 0-30.631-30.631-47.365-71.27-47.807-113.724-0.306-29.321 7.22-58.227 21.97-83.623 8.876-15.282 3.683-34.867-11.599-43.743s-34.867-3.683-43.743 11.599c-20.571 35.417-31.049 75.666-30.625 116.434 0.615 59.031 23.958 115.722 66.549 158.312 88.748 88.748 232.638 88.748 321.386 0 43.214-43.214 66.599-100.934 66.561-160.837-0.026-40.371-10.736-80.12-31.319-115.075z" />
<glyph unicode="&#xe995;" glyph-name="hande-vertical" d="M476.377 601.996c0 55.734 44.348 102.004 100.427 102.004 55.965 0 100.76-46.152 100.76-102.004v-135.071c20.733-4.511 39.263-15.080 53.555-29.776 2.408 0.163 4.839 0.246 7.29 0.246 29.758 0 56.712-12.248 75.972-32.001l-2.952 0.045c0.988 0 1.972-0.015 2.952-0.045 51.354-1.567 92.261-43.865 92.261-95.495v-40.433l0.156-88.181c0-9.61-0.813-19.253-2.369-28.963-5.090-31.76-15.925-58.729-36.407-99.077-20.541-40.465-24.913-50.602-24.913-53.245v-64h-336.238v64c0-6.86-1.831-2.602-6.331 4.675-6.693 10.823-13.151 20.010-32.353 46.492-1.037 1.43-1.037 1.43-2.078 2.867-12.886 17.791-20.566 28.709-28.028 40.159-10.277 15.769-26.026 40.369-45.835 71.534-13.332 20.977-26.784 42.213-40.205 63.448-8.052 12.74-14.304 22.647-19.171 30.461-26.884 46.584-10.143 105.749 36.209 132.523 34.772 20.062 77.016 16.573 107.299-6.108v215.944zM842.642 268.439v41.46c0 17.418-13.981 31.54-31.214 31.54-7.343 0-14.248-4.301-20.713-12.904-1.099-1.462-2.822-2.322-4.651-2.322-3.214 0-5.819 2.605-5.819 5.819 0 22.847-18.724 41.364-41.837 41.364-11.165 0-21.231-4.321-28.654-11.364-0.622-0.59-1.23-1.249-1.82-1.979-1.182-1.447-2.951-2.286-4.818-2.286-3.436 0-6.221 2.785-6.221 6.221 0 22.847-18.974 41.364-41.983 41.364-10.355 0-19.765-3.753-26.982-9.962-1.577-1.357-3.589-2.103-5.67-2.103-4.801 0-8.694 3.892-8.694 8.694h-0.002v200.016c0 20.991-16.639 38.004-36.76 38.004-20.111 0-36.427-17.023-36.427-38.004v-343.764c0-6.018-2.822-11.688-7.623-15.317-8.459-6.394-20.5-4.719-26.894 3.74v0l-59.385 78.572c-9.018 15.626-29.348 20.767-45.413 11.498-16.066-9.28-21.779-29.471-12.761-45.097 0 0 73.427-116.497 103.4-162.491s79.171-102.727 79.171-129.137h208.238c0 44.585 63.689 114.226 63.689 181.285-0.035 57.783-0.087 86.834-0.156 87.154zM256 704v-512h64l-96-128-96 128h64v512h-64l96 128 96-128h-64z" />
<glyph unicode="&#xe996;" glyph-name="hand-gather" d="M476.377 601.996c0 55.734 44.348 102.004 100.427 102.004 55.965 0 100.76-46.152 100.76-102.004v-135.071c20.733-4.511 39.263-15.080 53.555-29.776 2.408 0.163 4.839 0.246 7.29 0.246 29.758 0 56.712-12.248 75.972-32.001l-2.952 0.045c0.988 0 1.972-0.015 2.952-0.045 51.354-1.567 92.261-43.865 92.261-95.495v-40.433l0.156-88.181c0-9.61-0.813-19.253-2.369-28.963-5.090-31.76-15.925-58.729-36.407-99.077-20.541-40.465-24.913-50.602-24.913-53.245v-64h-336.238v64c0-6.86-1.831-2.602-6.331 4.675-6.693 10.823-13.151 20.010-32.353 46.492-1.037 1.43-1.037 1.43-2.078 2.867-12.886 17.791-20.566 28.709-28.028 40.159-10.277 15.769-26.026 40.369-45.835 71.534-13.332 20.977-26.784 42.213-40.205 63.448-8.052 12.74-14.304 22.647-19.171 30.461-26.884 46.584-10.143 105.749 36.209 132.523 34.772 20.062 77.016 16.573 107.299-6.108v215.944zM842.642 268.439v41.46c0 17.418-13.981 31.54-31.214 31.54-7.343 0-14.248-4.301-20.713-12.904-1.099-1.462-2.822-2.322-4.651-2.322-3.214 0-5.819 2.605-5.819 5.819 0 22.847-18.724 41.364-41.837 41.364-11.165 0-21.231-4.321-28.654-11.364-0.622-0.59-1.23-1.249-1.82-1.979-1.182-1.447-2.951-2.286-4.818-2.286-3.436 0-6.221 2.785-6.221 6.221 0 22.847-18.974 41.364-41.983 41.364-10.355 0-19.765-3.753-26.982-9.962-1.577-1.357-3.589-2.103-5.67-2.103-4.801 0-8.694 3.892-8.694 8.694h-0.002v200.016c0 20.991-16.639 38.004-36.76 38.004-20.111 0-36.427-17.023-36.427-38.004v-343.764c0-6.018-2.822-11.688-7.623-15.317-8.459-6.394-20.5-4.719-26.894 3.74v0l-59.385 78.572c-9.018 15.626-29.348 20.767-45.413 11.498-16.066-9.28-21.779-29.471-12.761-45.097 0 0 73.427-116.497 103.4-162.491s79.171-102.727 79.171-129.137h208.238c0 44.585 63.689 114.226 63.689 181.285-0.035 57.783-0.087 86.834-0.156 87.154zM405.889 754.103c17.239 14.035 36.64 25.533 57.789 34.078 31.735 12.822 65.263 18.129 98.618 15.95l4.173 63.864c-42.907 2.804-86.060-4.028-126.766-20.474-26.361-10.651-50.654-24.913-72.351-42.277l-39.256 52.095-44.451-153.701 160 0.363-37.755 50.103zM196.16 544.445c-14.195-16.036-26.125-34.18-35.405-54.082-15.062-32.301-22.087-66.966-20.999-101.756l-63.969-2c-1.399 44.75 7.642 89.369 26.964 130.804 11.173 23.961 25.373 45.977 42.173 65.644l-51.203 38.584 153.701 44.451-0.363-160-50.899 38.355z" />
<glyph unicode="&#xe997;" glyph-name="hand-grasp" d="M526.248 631.447c39.335 0 74.611-18.195 97.317-46.689 7.207 1.285 14.624 1.956 22.19 1.956 38.632 0 73.376-17.489 96.163-45.047 2.753 0.208 5.533 0.314 8.338 0.314 59.826 0 108.658-48.234 108.658-108.121 0.030-10.617 0.075-29.733 0.119-54.719 0.075-41.641 0.12-84.245 0.12-125.362 0-12.054-1.040-24.199-3.040-36.478-6.729-41.32-21.488-77.275-49.732-131.691-32.268-62.17-38.381-76.037-38.381-85.61v-64h-426.020v64c0-1.131-17.423 22.986-58.588 70.559-5.754 6.656-8.13 9.415-11.571 13.446-54.657 64.018-78.224 100.961-78.224 148.439 0.049 0.846 0.094 1.618 0.136 2.324-0.022 0.406-0.082 67.099-0.181 200.078 0 61.597 46.002 111.991 105.339 120.759 5.72 59.095 55.019 105.703 115.569 105.703 31.786 0 60.47-12.839 81.38-33.584 9.74 2.432 19.93 3.722 30.407 3.722zM794.914 433.86c0 24.367-20.007 44.121-44.658 44.121-9.488 0-18.279-2.922-25.507-7.905-2.836-1.955-5.493-4.824-7.97-8.611-1.123-1.715-3.035-2.748-5.086-2.748-3.358 0-6.080 2.722-6.080 6.080 0 31.997-26.801 57.917-59.858 57.917-16.699 0-31.799-6.608-42.657-17.27-0.542-0.532-1.075-1.102-1.6-1.711-1.689-1.954-4.144-3.077-6.726-3.077-4.91 0-8.89 3.98-8.89 8.89v0c0 31.982-26.711 57.902-59.634 57.902-18.863 0-35.683-8.501-46.615-21.773-1.022-1.24-2.005-2.673-2.949-4.298-0.968-1.666-2.75-2.69-4.676-2.69-2.987 0-5.409 2.422-5.409 5.409 0 29.384-23.337 53.214-52.139 53.214-28.787 0-52.124-23.83-52.124-53.214v-167.957c0-9.869-10.093-17.872-22.531-17.872-12.452 0-22.546 8.003-22.546 17.872v116.819c-32.982-0.045-59.708-26.039-59.708-58.111l0.075-198.058c0-0.761 0.209-1.463 0.239-2.195-0.045-0.761-0.269-1.359-0.269-2.15 0-66.009 148.383-176.527 148.383-232.443h298.020c0 62.426 91.153 159.894 91.153 253.78s-0.239 180.081-0.239 180.081z" />
<glyph unicode="&#xe998;" glyph-name="hand-horizontal" d="M476.377 601.996c0 55.734 44.348 102.004 100.427 102.004 55.965 0 100.76-46.152 100.76-102.004v-135.071c20.733-4.511 39.263-15.080 53.555-29.776 2.408 0.163 4.839 0.246 7.29 0.246 29.758 0 56.712-12.248 75.972-32.001l-2.952 0.045c0.988 0 1.972-0.015 2.952-0.045 51.354-1.567 92.261-43.865 92.261-95.495v-40.433l0.156-88.181c0-9.61-0.813-19.253-2.369-28.963-5.090-31.76-15.925-58.729-36.407-99.077-20.541-40.465-24.913-50.602-24.913-53.245v-64h-336.238v64c0-6.86-1.831-2.602-6.331 4.675-6.693 10.823-13.151 20.010-32.353 46.492-1.037 1.43-1.037 1.43-2.078 2.867-12.886 17.791-20.566 28.709-28.028 40.159-10.277 15.769-26.026 40.369-45.835 71.534-13.332 20.977-26.784 42.213-40.205 63.448-8.052 12.74-14.304 22.647-19.171 30.461-26.884 46.584-10.143 105.749 36.209 132.523 34.772 20.062 77.016 16.573 107.299-6.108v215.944zM842.642 268.439v41.46c0 17.418-13.981 31.54-31.214 31.54-7.343 0-14.248-4.301-20.713-12.904-1.099-1.462-2.822-2.322-4.651-2.322-3.214 0-5.819 2.605-5.819 5.819 0 22.847-18.724 41.364-41.837 41.364-11.165 0-21.231-4.321-28.654-11.364-0.622-0.59-1.23-1.249-1.82-1.979-1.182-1.447-2.951-2.286-4.818-2.286-3.436 0-6.221 2.785-6.221 6.221v0c0 22.847-18.974 41.364-41.983 41.364-10.355 0-19.765-3.753-26.982-9.962 0 0 0 0 0 0-1.577-1.357-3.589-2.103-5.67-2.103-4.801 0-8.694 3.892-8.694 8.694h-0.002v200.016c0 20.991-16.639 38.004-36.76 38.004-20.111 0-36.427-17.023-36.427-38.004v-343.764c0-6.018-2.822-11.688-7.623-15.317-8.459-6.394-20.5-4.719-26.894 3.74v0l-59.385 78.572c-9.018 15.626-29.348 20.767-45.413 11.498-16.066-9.28-21.779-29.471-12.761-45.097 0 0 73.427-116.497 103.4-162.491s79.171-102.727 79.171-129.137h208.238c0 44.585 63.689 114.226 63.689 181.285-0.035 57.783-0.087 86.834-0.156 87.154zM256 832h512v64l128-96-128-96v64h-512v-64l-128 96 128 96v-64z" />
<glyph unicode="&#xe999;" glyph-name="hand-pointer" d="M520.812 842.794l-4.776-211.302c1.599 0 3.191-0.030 4.776-0.090 37.402-1.405 70.918-19.238 92.841-46.569 7.135 1.261 14.481 1.919 21.98 1.919 38.656 0 73.426-17.491 96.227-45.055 2.761 0.209 5.55 0.316 8.363 0.316 59.854 0 108.709-48.246 108.709-108.156v-56.605l0.224-123.455c0-12.135-1.055-24.362-3.082-36.725-6.763-41.248-21.52-77.148-49.734-131.471-32.289-62.171-38.409-76.042-38.409-85.602v-64h-426.268v64c0 0.368-19.311 30.893-60.265 86.1-1.482 1.998-1.482 1.998-2.969 4.004-18.218 24.584-29.028 39.606-39.415 55.185-14.651 21.974-37.168 56.351-65.492 99.905-19.082 29.346-38.339 59.060-57.552 88.772-11.528 17.827-20.481 31.695-26.921 41.773-31.436 53.241-11.797 121.078 41.952 151.423 51.487 29.035 117.066 13.927 149.041-35.188l17.943-23.204v374.025c0 64.442 51.741 117.206 116.175 117.206 64.358 0 116.653-52.663 116.653-117.206zM784.932 375.815v58.044c0 24.385-20.025 44.156-44.709 44.156-11.573 0-22.117-4.348-30.051-11.481-1.452-1.306-2.84-2.937-4.163-4.892-1.063-1.572-2.837-2.514-4.735-2.514-3.157 0-5.716 2.559-5.716 5.716 0 31.986-26.819 57.91-59.925 57.91-15.016 0-28.644-5.333-39.053-14.147-1.52-1.287-2.989-2.823-4.404-4.608-1.703-2.143-4.291-3.393-7.028-3.393-4.958 0-8.977 4.019-8.977 8.977 0 31.986-27.178 57.91-60.135 57.91-15.439 0-29.411-5.693-39.901-15.031 0 0 0 0 0 0-2.125-1.892-4.871-2.937-7.716-2.937-6.409 0-11.604 5.195-11.604 11.604h-0.003v281.666c0 29.388-23.833 53.206-52.653 53.206-28.805 0-52.175-23.833-52.175-53.206v-467.72c0-9.907-4.588-19.255-12.425-25.315-13.981-10.811-34.078-8.241-44.889 5.74v0l-77.186 99.818c-12.917 21.877-42.036 29.074-65.047 16.098-23.011-12.992-31.195-41.259-18.278-63.136 0 0 105.172-163.096 148.104-227.487s113.4-143.818 113.4-180.792h298.268c0 62.419 91.225 159.916 91.225 253.798-0.050 80.896-0.124 121.568-0.224 122.016z" />
<glyph unicode="&#xe99a;" glyph-name="hand-slide" d="M476.377 601.996c0 55.734 44.348 102.004 100.427 102.004 55.965 0 100.76-46.152 100.76-102.004v-135.071c20.733-4.511 39.263-15.080 53.555-29.776 2.408 0.163 4.839 0.246 7.29 0.246 29.758 0 56.712-12.248 75.972-32.001l-2.952 0.045c0.988 0 1.972-0.015 2.952-0.045 51.354-1.567 92.261-43.865 92.261-95.495v-40.433l0.156-88.181c0-9.61-0.813-19.253-2.369-28.963-5.090-31.76-15.925-58.729-36.407-99.077-20.541-40.465-24.913-50.602-24.913-53.245v-64h-336.238v64c0-6.86-1.831-2.602-6.331 4.675-6.693 10.823-13.151 20.010-32.353 46.492-1.037 1.43-1.037 1.43-2.078 2.867-12.886 17.791-20.566 28.709-28.028 40.159-10.277 15.769-26.026 40.369-45.835 71.534-13.332 20.977-26.784 42.213-40.205 63.448-8.052 12.74-14.304 22.647-19.171 30.461-26.884 46.584-10.143 105.749 36.209 132.523 34.772 20.062 77.016 16.573 107.299-6.108v215.944zM842.642 268.439v41.46c0 17.418-13.981 31.54-31.214 31.54-7.343 0-14.248-4.301-20.713-12.904-1.099-1.462-2.822-2.322-4.651-2.322-3.214 0-5.819 2.605-5.819 5.819v0c0 22.847-18.724 41.364-41.837 41.364-11.165 0-21.231-4.321-28.654-11.364-0.622-0.59-1.23-1.249-1.82-1.979-1.182-1.447-2.951-2.286-4.818-2.286-3.436 0-6.221 2.785-6.221 6.221v0c0 22.847-18.974 41.364-41.983 41.364-10.355 0-19.765-3.753-26.982-9.962 0 0 0 0 0 0-1.577-1.357-3.589-2.103-5.67-2.103-4.801 0-8.694 3.892-8.694 8.694h-0.002v200.016c0 20.991-16.639 38.004-36.76 38.004-20.111 0-36.427-17.023-36.427-38.004v-343.764c0-6.018-2.822-11.688-7.623-15.317-8.459-6.394-20.5-4.719-26.894 3.74v0l-59.385 78.572c-9.018 15.626-29.348 20.767-45.413 11.498-16.066-9.28-21.779-29.471-12.761-45.097 0 0 73.427-116.497 103.4-162.491s79.171-102.727 79.171-129.137h208.238c0 44.585 63.689 114.226 63.689 181.285-0.035 57.783-0.087 86.834-0.156 87.154zM352 768v64l128-95.928-128-96.072v64c-88.366 0-160-71.634-160-160h64l-96.273-128-95.727 128h64c0 123.712 100.288 224 224 224z" />
<glyph unicode="&#xe99b;" glyph-name="hand-stop" d="M251.938 539.575l-188.117 108.61 32 55.426 886.81-512-32-55.426-100.783 58.187c-8.079-32.567-22.109-64.544-45.021-108.687-32.268-62.171-38.382-76.038-38.382-85.605v-64h-426.028v64c0-1.139-17.422 22.975-58.59 70.551-5.771 6.677-8.155 9.444-11.606 13.487-54.621 63.981-78.191 100.939-78.191 148.412 0.116 2.97 0.082 3.617 0.045 4.321l-0.075 198.072c0 44.605 24.108 83.344 59.938 104.652zM791.46 228.082l-430.672 248.649v-115.434c0-9.884-10.094-17.873-22.546-17.873s-22.546 7.988-22.546 17.873v131.753c-32.983-0.030-59.695-26.040-59.695-58.127l0.075-198.048c0-0.761 0.209-1.463-0.045-4.345 0-66.026 148.387-176.547 148.387-232.45h298.028c0 56.715 75.272 142.393 89.015 228.003zM793.376 376.071l64-36.845v273.857c0 56.525-43.498 102.684-98.745 107.663-18.71 44.273-63.147 75.085-114.702 75.085-14.418 51.839-62.617 89.528-119.241 89.528-1.18 0-2.352-0.018-3.599 0.159-16.88 43.492-58.786 74.483-108.176 74.483-64.44 0-116.125-52.769-116.125-117.2v-180.837l64-36.845v217.683c0 29.37 23.323 53.2 52.125 53.2s52.14-23.815 52.14-53.2v-277.709l45.048-25.934v279.097c4.584 2.284 9.466 3.106 14.588 3.106 32.938 0 59.635-25.921 59.635-57.903v-89.528c0 0.278 0.045-58.915 0.134-177.58l45.093-25.96v258.278c4.614 2.344 9.511 3.165 14.648 3.165 33.073 0 59.874-25.921 59.874-57.903v-194.375c0.791-9.317 10.437-16.693 22.382-16.693 12.453 0 22.546 8.003 22.546 17.888v176.443c24.532-0.149 44.376-19.829 44.376-44.107v-237.011z" />
<glyph unicode="&#xe99c;" glyph-name="hand-touch" d="M266.854 411.354v190.632c0 56.044 45.025 102.013 101.235 102.013 56.216 0 101.246-45.965 101.246-102.013v-134.765c21.487-4.335 40.7-15.071 55.419-30.163 2.826 0.222 5.681 0.335 8.562 0.335 29.907 0 57.139-12.204 76.614-31.975l-1.963 0.020c0.656 0 1.31-0.007 1.963-0.020 51.886-1.040 93.939-43.228 93.939-95.498v-39.859l0.16-2.41v-86.362c0-9.625-0.827-19.279-2.409-28.995-5.207-31.98-16.318-59.052-37.337-99.556-20.857-40.191-25.359-50.405-25.359-52.738v-64h-340.892v64c0-8.050-0.827-6.318-4.44-1.316-6.495 8.989-11.566 15.036-32.959 39.755-4.136 4.784-4.136 4.784-8.346 9.697-42.256 49.488-60.264 77.714-60.264 117.911 0.082 2.129 0.058 2.59 0.032 3.080l-0.053 141.508c0 47.581 31.668 87.366 74.854 100.719zM639.868 268.462v41.459c0 17.407-14.292 31.518-31.902 31.518-5.594 0-10.848-1.422-15.416-3.919-2.889-1.58-5.574-4.254-8.059-8.021-0.848-1.288-2.287-2.063-3.83-2.063-2.533 0-4.586 2.053-4.586 4.586 0 22.857-19.145 41.373-42.76 41.373-10.35 0-19.84-3.554-27.238-9.469-1.342-1.073-2.633-2.398-3.873-3.973-1.238-1.574-3.129-2.493-5.132-2.493-3.605 0-6.528 2.923-6.528 6.528v0c0 22.846-19.071 41.363-42.6 41.363-7.861 0-15.224-2.065-21.544-5.666 0 0 0 0 0 0-2.126-1.211-4.531-1.848-6.977-1.848-7.784 0-14.093 6.31-14.093 14.093h0.005v190.059c0 20.991-16.671 38.013-37.246 38.013-20.564 0-37.235-17.023-37.235-38.013v-354.622c0-7.050-7.21-12.767-16.095-12.767-8.895 0-16.106 5.717-16.106 12.767v104.782c-23.561-0.032-42.653-18.601-42.653-41.512l0.053-141.484c0-0.544 0.149-1.045-0.032-3.104 0-47.154 106.009-126.104 106.009-166.048h212.892c0 44.594 65.105 114.222 65.105 181.289-0.028 57.788-0.082 86.846-0.16 87.173zM563.32 488.376c-8.968-15.229-28.583-20.305-43.812-11.337s-20.305 28.583-11.337 43.812c14.759 25.064 22.45 53.607 22.468 82.641 0.027 43.083-16.737 84.463-47.816 115.542-63.755 63.755-167.122 63.755-230.876 0-30.631-30.631-47.365-71.27-47.807-113.724-0.306-29.321 7.22-58.227 21.97-83.623 8.876-15.282 3.683-34.867-11.599-43.743s-34.867-3.683-43.743 11.599c-20.571 35.417-31.049 75.666-30.625 116.434 0.615 59.031 23.958 115.722 66.549 158.312 88.748 88.748 232.638 88.748 321.386 0 43.214-43.214 66.599-100.934 66.561-160.837-0.026-40.371-10.736-80.12-31.319-115.075zM669.292 426.754c-8.97-15.227-28.587-20.299-43.814-11.329s-20.299 28.587-11.329 43.814c25.959 44.065 39.491 94.221 39.543 145.214 0.077 75.66-29.359 148.373-83.913 202.928-111.948 111.948-293.536 111.879-405.587-0.173-53.821-53.821-83.264-125.269-84.069-199.832-0.556-51.493 12.645-102.268 38.55-146.888 8.873-15.284 3.677-34.868-11.608-43.741s-34.868-3.677-43.741 11.608c-31.726 54.647-47.878 116.77-47.197 179.713 0.985 91.134 37.037 178.622 102.811 244.395 137.037 137.037 359.147 137.122 496.096 0.173 66.698-66.698 102.752-155.761 102.659-248.248-0.063-62.326-16.618-123.683-48.4-177.634z" />
<glyph unicode="&#xe99d;" glyph-name="hdmi" d="M64 704v-320h57.6c38.4 0 70.4-32 70.4-70.4v-57.6h704v57.6c0 38.4 32 70.4 70.4 70.4h57.6v320h-960zM768 512v-64h-64v64h-64v-64h-64v64h-64v-64h-64v64h-64v-64h-64v64h-64v-64h-64v128h704v-128h-64v64h-64z" />
<glyph unicode="&#xe99e;" glyph-name="hdmi-l" d="M256 512h64v-64h64v64h64v-64h64v64h64v-64h64v64h64v-64h64v64h64v-64h64v128h-704v-128h64zM64 704v-320h57.6c38.4 0 70.4-32 70.4-70.4v-57.6h704v57.6c0 38.4 32 70.4 70.4 70.4h57.6v320h-960zM960 448c-70.4-6.4-121.6-57.6-128-128h-576c-6.4 70.4-57.6 121.6-128 128v192h832v-192z" />
<glyph unicode="&#xe99f;" glyph-name="headset" d="M512 832c-211.2 0-384-172.8-384-384v-448h256v320h-192v128c0 179.2 140.8 320 320 320s320-140.8 320-320v-128h-192v-320h256v448c0 211.2-172.8 384-384 384z" />
<glyph unicode="&#xe9a0;" glyph-name="headset-l" d="M512 832c-211.2 0-384-172.8-384-384v-448h256v320h-192v128c0 179.2 140.8 320 320 320s320-140.8 320-320v-128h-192v-320h256v448c0 211.2-172.8 384-384 384zM320 256v-192h-128v192h128zM832 64h-128v192h128v-192z" />
<glyph unicode="&#xe9a1;" glyph-name="heart" d="M928 774.4c-44.8 51.2-108.8 76.8-179.2 76.8-64 0-128-25.6-179.2-76.8l-57.6-57.6-57.6 64c-51.2 44.8-115.2 70.4-179.2 70.4s-128-25.6-179.2-76.8c-96-96-96-262.4 0-358.4l416-416 416 416c96 96 96 262.4 0 358.4z" />
<glyph unicode="&#xe9a2;" glyph-name="heart-l" d="M748.8 787.2c51.2 0 96-19.2 134.4-57.6 76.8-76.8 76.8-192 0-268.8l-371.2-371.2-371.2 377.6c-76.8 70.4-76.8 192 0 262.4 32 38.4 83.2 57.6 134.4 57.6s96-19.2 134.4-57.6l102.4-102.4 102.4 102.4c38.4 38.4 83.2 57.6 134.4 57.6zM748.8 851.2c-64 0-128-25.6-179.2-76.8l-57.6-57.6-57.6 64c-51.2 44.8-115.2 70.4-179.2 70.4s-128-25.6-179.2-76.8v0c-96-96-96-262.4 0-358.4l416-416 416 416c96 96 96 262.4 0 358.4v0c-44.8 51.2-108.8 76.8-179.2 76.8v0z" />
<glyph unicode="&#xe9a3;" glyph-name="home" d="M128 448v-448h288v256h192v-256h288v448l-384 320zM512 902.4l-448-371.2v-83.2l448 371.2 448-371.2v83.2z" />
<glyph unicode="&#xe9a4;" glyph-name="home-l" d="M128 448v-448h288v256h192v-256h288v448l-384 320-384-320zM832 64h-160v256h-320v-256h-160v352l320 268.8 320-268.8v-352zM512 902.4l-448-371.2v-83.2l448 371.2 448-371.2v83.2z" />
<glyph unicode="&#xe9a5;" glyph-name="html5" d="M966.4 960l-83.2-921.6-371.2-102.4-364.8 102.4-83.2 921.6h902.4zM800 774.4h-569.6l32-339.2h390.4l-12.8-153.6-128-32-128 32-6.4 89.6h-108.8l12.8-179.2 230.4-64 230.4 64 32 345.6h-409.6l-6.4 121.6h428.8l12.8 115.2z" />
<glyph unicode="&#xe9a6;" glyph-name="image" d="M0 832v-768h1024v768h-1024zM64 768h896v-576l-128 256-192-192-192 256-384-384v640zM224 704c-51.2 0-96-44.8-96-96s44.8-96 96-96 96 44.8 96 96-44.8 96-96 96z" />
<glyph unicode="&#xe9a7;" glyph-name="image-l" d="M0 832v-768h1024v768h-1024zM153.6 128l288 288 147.2-198.4 44.8-57.6 179.2 179.2 108.8-211.2h-768zM832 448l-192-192-192 256-384-384v640h896v-576l-128 256zM224 704c-51.2 0-96-44.8-96-96s44.8-96 96-96 96 44.8 96 96-44.8 96-96 96zM224 576c-19.2 0-32 12.8-32 32s12.8 32 32 32 32-12.8 32-32-12.8-32-32-32z" />
<glyph unicode="&#xe9a8;" glyph-name="inbox" d="M896 320h-256v-128h-256v128h-320v-320h896v320zM480 832h64v-192h-64v192zM384 384h64v-128h128v128h352l-160 320h-128v-64h-96v-115.2l70.4 76.8 51.2-51.2-153.6-147.2-153.6 147.2 51.2 51.2 70.4-76.8v115.2h-96v64h-128l-160-320h70.4z" />
<glyph unicode="&#xe9a9;" glyph-name="inbox-l" d="M768 704h-128v-64h89.6l128-256h-281.6v-128h-128v128h-281.6l128 256h89.6v64h-128l-192-384v-320h896v320l-192 384zM896 64h-768v256h256v-128h256v128h256v-256zM358.4 550.4l153.6-147.2 153.6 147.2-51.2 51.2-70.4-76.8v307.2h-64v-307.2l-70.4 76.8z" />
<glyph unicode="&#xe9aa;" glyph-name="Instagram" d="M876.8 249.6c0-96-76.8-172.8-172.8-172.8h-384c-96 0-172.8 76.8-172.8 172.8v390.4c0 96 76.8 172.8 172.8 172.8h384c96 0 172.8-76.8 172.8-172.8v-390.4zM704 896h-384c-140.8 0-256-115.2-256-262.4v-377.6c0-140.8 115.2-262.4 256-262.4h384c140.8 0 256 115.2 256 262.4v377.6c0 147.2-115.2 262.4-256 262.4v0zM512 294.4c-83.2 0-153.6 70.4-153.6 153.6s70.4 153.6 153.6 153.6 153.6-70.4 153.6-153.6c0-89.6-70.4-153.6-153.6-153.6zM512 678.4c-128 0-230.4-102.4-230.4-236.8s102.4-230.4 230.4-230.4 230.4 102.4 230.4 230.4-102.4 236.8-230.4 236.8zM755.2 742.4c-32 0-51.2-25.6-51.2-51.2s25.6-51.2 51.2-51.2c32 0 51.2 25.6 51.2 51.2s-25.6 51.2-51.2 51.2z" />
<glyph unicode="&#xe9ab;" glyph-name="key" d="M473.6 576c-38.4 76.8-121.6 128-217.6 128-140.8 0-256-115.2-256-256s115.2-256 256-256c121.6 0 217.6 83.2 249.6 192h198.4v-128h128v128h128v192h-486.4zM256 320c-70.4 0-128 57.6-128 128s57.6 128 128 128 128-57.6 128-128-57.6-128-128-128z" />
<glyph unicode="&#xe9ac;" glyph-name="keyboard" d="M0 768v-576h960v576h-960zM256 512v-64h-128v64h128zM128 576v64h64v-64h-64zM256 384v-64h-128v64h128zM448 576h-64v64h64v-64zM512 512v-64h-64v64h64zM640 384v-64h-320v64h320zM576 576h-64v64h64v-64zM640 512v-64h-64v64h64zM384 448h-64v64h64v-64zM320 576h-64v64h64v-64zM704 320v64h128v-64h-128zM832 576h-64v64h64v-64zM832 512v-64h-128v64h128zM704 576h-64v64h64v-64z" />
<glyph unicode="&#xe9ad;" glyph-name="keyboard-l" d="M0 768v-576h960v576h-960zM896 256h-832v448h832v-448zM128 640h64v-64h-64v64zM128 512h128v-64h-128v64zM128 384h128v-64h-128v64zM704 384h128v-64h-128v64zM320 384h320v-64h-320v64zM256 640h64v-64h-64v64zM384 640h64v-64h-64v64zM320 512h64v-64h-64v64zM448 512h64v-64h-64v64zM576 512h64v-64h-64v64zM704 448h128v64h-128zM512 640h64v-64h-64v64zM640 640h64v-64h-64v64zM768 640h64v-64h-64v64z" />
<glyph unicode="&#xe9ae;" glyph-name="key-l" d="M256 576c-70.4 0-128-57.6-128-128s57.6-128 128-128 128 57.6 128 128-57.6 128-128 128zM256 384c-38.4 0-64 25.6-64 64s25.6 64 64 64 64-25.6 64-64-25.6-64-64-64zM473.6 576c-38.4 76.8-121.6 128-217.6 128-140.8 0-256-115.2-256-256s115.2-256 256-256c121.6 0 217.6 83.2 249.6 192h134.4v-128h192v128h128v192h-486.4zM896 448h-128v-128h-64v128h-249.6l-12.8-44.8c-25.6-89.6-96-147.2-185.6-147.2-108.8 0-192 83.2-192 192s83.2 192 192 192c70.4 0 128-38.4 166.4-96l19.2-32h454.4v-64z" />
<glyph unicode="&#xe9af;" glyph-name="label-info" d="M384 704h256v-64h-256v64zM192 896v-896l320 192 320-192v896h-640zM704 320h-384v64h384v-64zM704 448h-384v64h384v-64zM704 576h-384v192h384v-192z" />
<glyph unicode="&#xe9b0;" glyph-name="label-info-l" d="M192 896v-896l320 192 320-192v896h-640zM768 115.2l-256 153.6-256-153.6v716.8h512v-716.8zM704 768h-384v-192h384v192zM640 640h-256v64h256v-64zM320 512h384v-64h-384v64zM320 384h384v-64h-384v64z" />
<glyph unicode="&#xe9b1;" glyph-name="laptop" d="M832 384v448h-704v-448l-128-192h960l-128 192zM192 768h576v-384h-576v384zM512 256h-64v64h64v-64z" />
<glyph unicode="&#xe9b2;" glyph-name="laptop-l" d="M832 256v448h-704v-448l-128-192h960l-128 192zM192 640h576v-384h-576v384zM121.6 128l44.8 64h281.6v-64h-326.4zM512 192h288l44.8-64h-332.8v64z" />
<glyph unicode="&#xe9b3;" glyph-name="layers" d="M876.8 288l-70.4-38.4 76.8-38.4-364.8-179.2-364.8 179.2 64 32-70.4 38.4-134.4-70.4 505.6-249.6 505.6 249.6zM1011.2 646.4l-505.6 249.6-505.6-249.6 505.6-256zM1011.2 428.8l-147.2 70.4-358.4-179.2-358.4 179.2-147.2-70.4 505.6-256z" />
<glyph unicode="&#xe9b4;" glyph-name="layout-grid" d="M0 960h448v-448h-448v448zM576 960h448v-448h-448v448zM0 384h448v-448h-448v448zM576 384h448v-448h-448v448z" />
<glyph unicode="&#xe9b5;" glyph-name="layout-grids" d="M64 896h256v-256h-256v256zM384 896h256v-256h-256v256zM704 896h256v-256h-256v256zM64 576h256v-256h-256v256zM384 576h256v-256h-256v256zM704 576h256v-256h-256v256zM64 256h256v-256h-256v256zM384 256h256v-256h-256v256zM704 256h256v-256h-256v256z" />
<glyph unicode="&#xe9b6;" glyph-name="layout-list" d="M0 960h1024v-448h-1024v448zM0 384h1024v-448h-1024v448z" />
<glyph unicode="&#xe9b7;" glyph-name="light" d="M480 896c-192 0-352-160-352-352 0-147.2 96-275.2 224-326.4v-25.6h256v25.6c128 51.2 224 179.2 224 326.4 0 192-160 352-352 352zM512 256h-64v134.4l-134.4 128 44.8 44.8 121.6-115.2 115.2 115.2 44.8-44.8-128-128v-134.4zM480 0c70.4 0 128 57.6 128 128h-256c0-70.4 57.6-128 128-128z" />
<glyph unicode="&#xe9b8;" glyph-name="light-flash-l" d="M160 576c0 194.404 157.596 352 352 352s352-157.596 352-352c0-153.926-99.691-288.608-244.775-335.35l-235.094-68.724v76.021c-133.416 51.964-224.131 181.216-224.131 328.053zM384 142.212l306.324 84.443v-64l-306.324-84.443v64zM384 39.812l306.324 84.443v-64l-306.324-84.443v64zM600.431 301.822c117.99 38.023 199.569 148.236 199.569 274.178 0 159.058-128.942 288-288 288s-288-128.942-288-288c0-126.758 82.636-237.516 201.706-274.858l22.424-7.032v-36.799l152.3 44.511zM554.489 755.2v-152.727h85.511l-170.664-213.818v152.727h-85.336l170.489 213.818z" />
<glyph unicode="&#xe9b9;" glyph-name="light-l" d="M896 537.6c0 192-160 352-352 352s-352-153.6-352-352c0-147.2 96-275.2 224-326.4v-89.6c0-70.4 57.6-128 128-128s128 57.6 128 128v89.6c128 51.2 224 179.2 224 326.4zM544 57.6c-38.4 0-64 25.6-64 64h128c0-32-25.6-64-64-64zM576 256v128l134.4 134.4-44.8 44.8-121.6-121.6-115.2 121.6-51.2-44.8 134.4-134.4v-128c-140.8 19.2-256 134.4-256 281.6 0 160 128 288 288 288s288-128 288-288c0-147.2-115.2-268.8-256-281.6z" />
<glyph unicode="&#xe9ba;" glyph-name="lightning" d="M736 512h-224v384l-224-512h224v-384z" />
<glyph unicode="&#xe9bb;" glyph-name="lightning-l" d="M736 512h-224v384l-224-576h224v-320l224 512zM377.6 384l70.4 172.8v-108.8h192l-64-147.2v83.2h-198.4z" />
<glyph unicode="&#xe9bc;" glyph-name="link-l" d="M800 640h-192c-121.6 0-224-102.4-224-224 0-32 6.4-64 19.2-96h6.4c19.2 0 38.4 6.4 57.6 19.2-12.8 19.2-19.2 51.2-19.2 76.8 0 89.6 70.4 160 160 160h192c89.6 0 160-70.4 160-160s-70.4-160-160-160h-153.6c-12.8-25.6-32-44.8-57.6-64 6.4 0 12.8 0 12.8 0h192c121.6 0 224 102.4 224 224 6.4 121.6-96 224-217.6 224zM620.8 512h-12.8c-19.2 0-38.4-6.4-51.2-19.2 12.8-19.2 19.2-44.8 19.2-76.8 0-89.6-70.4-160-160-160h-192c-89.6 0-160 70.4-160 160s70.4 160 160 160h147.2c12.8 25.6 32 44.8 57.6 64-6.4 0-6.4 0-12.8 0h-192c-121.6 0-224-102.4-224-224s102.4-224 224-224h192c121.6 0 224 102.4 224 224 0 32-6.4 64-19.2 96z" />
<glyph unicode="&#xe9bd;" glyph-name="linux" d="M844.8 12.8c-32-19.2-76.8-51.2-89.6-70.4-12.8-12.8-64-19.2-89.6 0-32 19.2-12.8 44.8-64 44.8-25.6 0-51.2 0-76.8 0-19.2 0-44.8 0-64 0-83.2 0-89.6-51.2-140.8-51.2-32 0-76.8 25.6-147.2 44.8-44.8 12.8-96 12.8-108.8 38.4-12.8 19.2 12.8 44.8 12.8 70.4 0 32-19.2 70.4-6.4 83.2s44.8 6.4 64 12.8c19.2 12.8 32 19.2 32 51.2 6.4-25.6 0-51.2-19.2-57.6-12.8-6.4-32-12.8-44.8-6.4-12.8 0-19.2 0-25.6-6.4s-6.4-19.2 0-32c6.4-12.8 12.8-25.6 12.8-44.8s-19.2-38.4-19.2-57.6c0-6.4 6.4-12.8 19.2-12.8 25.6-6.4 64-12.8 102.4-19.2 44.8-12.8 89.6-32 121.6-25.6 89.6 12.8 38.4 102.4 25.6 128-76.8 115.2-121.6 192-160 160-12.8-6.4-12.8 19.2-12.8 32 0 38.4 19.2 51.2 32 83.2 38.4 38.4 51.2 102.4 89.6 134.4 25.6 32 64 83.2 70.4 108.8-6.4 64-12.8 128-12.8 179.2 0 57.6 6.4 108.8 76.8 147.2 12.8 6.4 38.4 12.8 57.6 12.8 38.4 0 83.2-12.8 108.8-32 44.8-32 70.4-102.4 70.4-153.6 0-38.4 6.4-83.2 19.2-121.6 12.8-51.2 38.4-83.2 76.8-121.6 44.8-51.2 76.8-147.2 89.6-204.8 6.4-57.6-6.4-89.6-12.8-89.6-19.2 0-32-57.6-89.6-57.6-38.4 0-38.4 25.6-51.2 44.8-19.2 32-32 19.2-38.4-12.8-6.4-12.8 0-38.4 6.4-57.6 12.8-38.4 6.4-70.4 0-108.8-12.8-76.8 57.6-96 102.4-57.6s51.2 44.8 108.8 64c83.2 32 57.6 57.6 12.8 70.4-38.4 12.8-44.8 83.2-25.6 96 6.4-76.8 44.8-83.2 57.6-96 64-51.2-32-83.2-70.4-108.8zM748.8 294.4c12.8 51.2 6.4 70.4 0 121.6-12.8 32-44.8 83.2-70.4 96 6.4-6.4 19.2-19.2 32-44.8 25.6-44.8 44.8-108.8 32-160-6.4-19.2-19.2-25.6-25.6-25.6-38.4-6.4-19.2 51.2-32 121.6-25.6 83.2-44.8 83.2-51.2 89.6-19.2 108.8-44.8 96-57.6 134.4-6.4 38.4 32 64-19.2 76.8-12.8 0-32 12.8-44.8 19.2-6.4 0-12.8 57.6 19.2 57.6s38.4-38.4 32-51.2c-6.4-12.8 0-19.2 19.2-12.8 12.8 6.4 6.4 38.4 6.4 44.8-12.8 44.8-32 51.2-51.2 51.2-76.8-6.4-44.8-89.6-51.2-83.2-12.8 12.8-44.8 0-44.8 6.4 0 44.8-12.8 70.4-32 70.4-25.6 6.4-32-25.6-38.4-44.8 0-19.2 12.8-57.6 19.2-51.2 6.4 0 12.8 12.8 6.4 12.8s-12.8 12.8-12.8 25.6c0 12.8 6.4 32 25.6 32s19.2-44.8 19.2-44.8c-6.4-12.8-19.2-19.2-19.2-19.2-6.4-12.8-19.2-19.2-25.6-25.6-12.8-6.4-12.8-19.2-6.4-25.6 25.6-12.8 19.2-32 51.2-32 25.6 0 44.8 6.4 57.6 6.4 12.8 6.4 51.2 12.8 64 25.6 6.4 6.4 6.4 6.4 12.8 6.4s6.4-12.8-6.4-19.2c-19.2 0-38.4-12.8-57.6-19.2s-25.6-6.4-38.4-12.8c-38.4-6.4-64 12.8-38.4-12.8 6.4-6.4 19.2-12.8 38.4-12.8 44.8 0 102.4 57.6 108.8 32 0-6.4-12.8-12.8-25.6-19.2-44.8-19.2-76.8-64-102.4-51.2-38.4 19.2-64 83.2-64 57.6 0-44.8-57.6-83.2-32-134.4-19.2-6.4-57.6-89.6-64-134.4-6.4-25.6 0-57.6-6.4-70.4-6.4-25.6-44.8 25.6-32 83.2 0 12.8 0 12.8 0 6.4-12.8-25.6-6.4-70.4 6.4-96 6.4-12.8 19.2-12.8 25.6-25.6 19.2-25.6 96-83.2 115.2-96 19.2-19.2 12.8-57.6-25.6-57.6 19.2-38.4 38.4-38.4 38.4-96 19.2 12.8 12.8 38.4 6.4 51.2s-12.8 19.2-12.8 19.2c0 0 12.8 12.8 19.2 6.4 19.2-19.2 57.6-25.6 96-19.2s83.2 19.2 102.4 51.2c6.4 12.8 12.8 19.2 19.2 19.2s6.4-12.8 6.4-32c0-19.2-6.4-38.4-12.8-51.2-12.8-25.6-12.8-38.4 6.4-38.4 6.4 32 12.8 64 19.2 96 0 38.4-25.6 102.4 6.4 140.8 6.4 6.4 19.2 12.8 32 12.8 0 44.8 70.4 44.8 96 25.6-12.8 0-32 12.8-38.4 19.2zM281.6 454.4c-6.4-6.4-19.2-12.8-6.4-12.8 0 0 12.8 6.4 12.8 12.8 0 12.8 6.4 12.8 0 19.2-6.4 0-6.4-6.4-6.4-19.2zM409.6 768c-6.4 0-6.4-6.4 0-6.4 0 0 6.4-6.4 6.4-6.4 0-6.4 0-12.8 6.4-12.8 0 0 0 0 0 0 0 12.8-6.4 25.6-12.8 25.6zM428.8 716.8c-6.4 0-6.4 12.8 12.8 12.8-12.8-6.4-12.8-12.8-12.8-12.8zM473.6 723.2c19.2 6.4 19.2-6.4 19.2-6.4-6.4 0-12.8 6.4-19.2 6.4zM544 768c-12.8 0-6.4 0 0 0 0-6.4 6.4-12.8 6.4-25.6 0 0 6.4 0 6.4 0 0 19.2-12.8 25.6-12.8 25.6zM576 896c-6.4 0-12.8 6.4-12.8 6.4-12.8 0-6.4-12.8-6.4-19.2s-12.8-12.8-6.4-19.2c6.4-6.4 6.4 6.4 19.2 12.8 0 0 19.2 0 19.2 6.4 0 0-6.4 6.4-12.8 12.8zM640 640c-12.8 6.4-12.8 19.2-19.2 12.8-12.8-12.8 12.8-38.4 25.6-38.4 6.4 0 12.8 6.4 12.8 19.2-6.4 6.4-12.8 0-19.2 6.4z" />
<glyph unicode="&#xe9be;" glyph-name="list-clipboard" d="M640 768v64h-64c0 51.2-44.8 96-96 96s-96-44.8-96-96h-64v-64h-192v-768h704v768h-192zM384 768h64v64c0 19.2 12.8 32 32 32s32-12.8 32-32v-64h64v-64h-192v64zM256 512v64h64v-64h-64zM384 512v64h320v-64h-320zM704 384v-64h-320v64h320zM320 320h-64v64h64v-64zM704 192v-64h-320v64h320zM320 192v-64h-64v64h64z" />
<glyph unicode="&#xe9bf;" glyph-name="list-clipboard-l" d="M640 768v64h-64c0 51.2-44.8 96-96 96s-96-44.8-96-96h-64v-64h-192v-768h704v768h-192zM384 768h64v64c0 19.2 12.8 32 32 32s32-12.8 32-32v-64h64v-64h-192v64zM768 64h-576v640h128v-64h320v64h128v-640zM384 576h320v-64h-320v64zM384 384h320v-64h-320v64zM384 192h320v-64h-320v64zM256 576h64v-64h-64v64zM256 384h64v-64h-64v64zM256 192h64v-64h-64v64z" />
<glyph unicode="&#xe9c0;" glyph-name="location" d="M780.8 774.4c-64 70.4-160 121.6-268.8 121.6s-204.8-51.2-268.8-121.6c-108.8-121.6-128-294.4-64-448 108.8-256 332.8-390.4 332.8-390.4s224 134.4 332.8 390.4c64 147.2 44.8 326.4-64 448zM512 640c70.4 0 128-57.6 128-128s-57.6-128-128-128-128 57.6-128 128 57.6 128 128 128z" />
<glyph unicode="&#xe9c1;" glyph-name="location-l" d="M780.8 774.4c-70.4 70.4-166.4 121.6-268.8 121.6s-204.8-51.2-275.2-121.6c-108.8-121.6-128-294.4-64-448 115.2-256 339.2-390.4 339.2-390.4s224 134.4 332.8 390.4c64 147.2 51.2 326.4-64 448zM787.2 352c-76.8-179.2-211.2-294.4-275.2-339.2-64 44.8-198.4 160-275.2 339.2-57.6 134.4-38.4 281.6 51.2 377.6 57.6 64 140.8 102.4 224 102.4s160-38.4 224-102.4c89.6-96 108.8-243.2 51.2-377.6zM512 640c-70.4 0-128-57.6-128-128s57.6-128 128-128c70.4 0 128 57.6 128 128s-57.6 128-128 128zM512 448c-38.4 0-64 25.6-64 64s25.6 64 64 64 64-25.6 64-64-32-64-64-64z" />
<glyph unicode="&#xe9c2;" glyph-name="lock" d="M768 512v128c0 140.8-115.2 256-256 256s-256-115.2-256-256v-128h-128v-512h768v512h-128zM320 640c0 108.8 83.2 192 192 192s192-83.2 192-192v-128h-384v128z" />
<glyph unicode="&#xe9c3;" glyph-name="lock-l" d="M768 512v128c0 140.8-115.2 256-256 256s-256-115.2-256-256v-128h-128v-512h768v512h-128zM320 640c0 108.8 83.2 192 192 192s192-83.2 192-192v-128h-384v128zM832 64h-640v384h640v-384z" />
<glyph unicode="&#xe9c4;" glyph-name="map" d="M640 832l-256-192-256 192v-640l256-192 256 192 256-192v640l-256 192zM608 249.6v0l-192-147.2v480l6.4 6.4 185.6 140.8v-480z" />
<glyph unicode="&#xe9c5;" glyph-name="map-l" d="M640 832l-256-192-256 192v-640l256-192 256 192 256-192v640l-256 192zM192 704l153.6-115.2 6.4-6.4v-480l-160 121.6v480zM416 102.4v480l6.4 6.4 185.6 140.8v-480l-6.4-6.4-185.6-140.8zM832 128l-153.6 115.2-6.4 6.4v480l160-121.6v-480z" />
<glyph unicode="&#xe9c6;" glyph-name="medal" d="M640 582.4c0-70.692-57.308-128-128-128s-128 57.308-128 128c0 70.692 57.308 128 128 128s128-57.308 128-128zM512 896c-179.2 0-320-140.8-320-320 0-102.4 44.8-185.6 121.6-249.6v-352l198.4 147.2 198.4-140.8v352c70.4 57.6 121.6 147.2 121.6 249.6-6.4 172.8-147.2 313.6-320 313.6zM512 384c-108.8 0-192 89.6-192 192 0 108.8 89.6 192 192 192s192-89.6 192-192-89.6-192-192-192zM512 198.4l-38.4-25.6-96-70.4v185.6c38.4-12.8 83.2-25.6 134.4-25.6 44.8 0 89.6 12.8 134.4 32v-185.6l-96 70.4-38.4 19.2z" />
<glyph unicode="&#xe9c7;" glyph-name="medal-l" d="M825.6 576c0 172.8-140.8 320-320 320s-313.6-140.8-313.6-320c0-102.4 44.8-185.6 121.6-249.6v-352l198.4 147.2 198.4-140.8v352c70.4 57.6 115.2 147.2 115.2 243.2zM256 576c0 140.8 115.2 256 256 256s256-115.2 256-256-115.2-256-256-256c-140.8 6.4-256 121.6-256 256zM640 102.4l-96 70.4-32 25.6-38.4-25.6-96-70.4v185.6c38.4-19.2 83.2-32 134.4-32s89.6 12.8 134.4 32v-185.6zM512 384c108.8 0 192 89.6 192 192s-89.6 192-192 192-192-89.6-192-192 83.2-192 192-192zM512 710.4c70.4 0 128-57.6 128-128s-57.6-134.4-128-134.4c-70.4 0-128 57.6-128 128s51.2 134.4 128 134.4z" />
<glyph unicode="&#xe9c8;" glyph-name="menu-l" d="M896 768h-768v-64h768v64zM896 512h-768v-64h768v64zM896 256h-768v-64h768v64z" />
<glyph unicode="&#xe9c9;" glyph-name="message" d="M64 691.2v-569.6h896v569.6l-448-345.6zM64 825.6v-51.2l448-345.6 448 345.6v51.2z" />
<glyph unicode="&#xe9ca;" glyph-name="message-l" d="M896 768v-576h-768v576h768zM960 832h-896v-704h896v704zM512 435.2l-448 345.6v-83.2l448-345.6 448 345.6v83.2z" />
<glyph unicode="&#xe9cb;" glyph-name="microchip" d="M384 576h256v-256h-256v256zM960 576v64h-128v128h-192v128h-64v-128h-64v128h-64v-128h-64v128h-64v-128h-128v-128h-128v-64h128v-64h-128v-64h128v-64h-128v-64h128v-192h128v-128h64v128h64v-128h64v128h64v-128h64v128h192v192h128v64h-128v64h128v64h-128v64h128zM704 256h-384v384h384v-384z" />
<glyph unicode="&#xe9cc;" glyph-name="microchip-l" d="M384 320h256v256h-256v-256zM448 512h128v-128h-128v128zM256 192h512v512h-512v-512zM320 640h384v-384h-384v384zM320 896h64v-128h-64v128zM448 896h64v-128h-64v128zM576 896h64v-128h-64v128zM320 128h64v-128h-64v128zM448 128h64v-128h-64v128zM576 128h64v-128h-64v128zM832 640h128v-64h-128v64zM832 512h128v-64h-128v64zM832 384h128v-64h-128v64zM64 640h128v-64h-128v64zM64 512h128v-64h-128v64zM64 384h128v-64h-128v64z" />
<glyph unicode="&#xe9cd;" glyph-name="microphone" d="M512 256c108.8 0 192 83.2 192 192v256c0 108.8-83.2 192-192 192s-192-83.2-192-192v-256c0-108.8 83.2-192 192-192zM512 825.6c76.8 0 140.8-64 140.8-140.8v-83.2h-64v83.2c0 44.8-32 76.8-76.8 76.8v64zM768 512v-64c0-140.8-115.2-256-256-256s-256 115.2-256 256v64h-64v-64c0-166.4 128-300.8 288-313.6v-70.4h-160v-64h384v64h-160v70.4c160 12.8 288 147.2 288 313.6v64h-64z" />
<glyph unicode="&#xe9ce;" glyph-name="microphone-l" d="M512 256c108.8 0 192 83.2 192 192v256c0 108.8-83.2 192-192 192s-192-83.2-192-192v-256c0-108.8 83.2-192 192-192zM384 704c0 70.4 57.6 128 128 128s128-57.6 128-128v-256c0-70.4-57.6-128-128-128s-128 57.6-128 128v256zM768 512v-64c0-140.8-115.2-256-256-256s-256 115.2-256 256v64h-64v-64c0-166.4 128-300.8 288-313.6v-70.4h-160v-64h384v64h-160v70.4c160 12.8 288 147.2 288 313.6v64h-64z" />
<glyph unicode="&#xe9cf;" glyph-name="microsoft" d="M0 819.2l422.4 57.6v-403.2h-422.4v345.6zM0 76.8l422.4-57.6v403.2h-422.4v-345.6zM467.2 883.2v-409.6h556.8v486.4l-556.8-76.8zM467.2 12.8l556.8-76.8v486.4h-556.8v-409.6z" />
<glyph unicode="&#xe9d0;" glyph-name="mobile" d="M192 896v-960h576v960h-576zM512 64h-64v64h64v-64z" />
<glyph unicode="&#xe9d1;" glyph-name="mobile-l" d="M192 896v-960h576v960h-576zM704 0h-448v832h448v-832zM448 128h64v-64h-64v64z" />
<glyph unicode="&#xe9d2;" glyph-name="moments" d="M966.4 288h-326.4l320 326.4c19.2-51.2 32-108.8 32-166.4s-12.8-108.8-25.6-160zM710.4 883.2c102.4-44.8 185.6-128 236.8-230.4l-236.8-236.8v467.2zM672 576l-326.4 320c51.2 19.2 108.8 32 166.4 32s108.8-12.8 160-25.6c0 0 0 0 0-6.4v-320zM76.8 646.4c44.8 102.4 128 185.6 230.4 236.8l236.8-236.8h-467.2zM64 275.2c-19.2 57.6-32 115.2-32 172.8s12.8 108.8 25.6 160c0 0 0 0 6.4 0h332.8l-332.8-332.8zM320 6.4c-102.4 44.8-192 128-243.2 230.4l243.2 243.2v-473.6zM358.4 320l320-320c-51.2-19.2-108.8-32-172.8-32-51.2 0-102.4 6.4-153.6 25.6 0 0 0 6.4 0 6.4v320zM947.2 249.6c-44.8-102.4-128-185.6-224-230.4l-230.4 230.4h454.4z" />
</font>
</defs>
</svg>
